<?xml version="1.0" standalone="no"?>
<!DOCTYPE svg PUBLIC "-//W3C//DTD SVG 1.1//EN" "http://www.w3.org/Graphics/SVG/1.1/DTD/svg11.dtd" >
<svg xmlns="http://www.w3.org/2000/svg">
<metadata>
This is a custom SVG webfont generated by Font Squirrel.
Designer    : Campivisivi
Foundry     : Campivisivi
</metadata>
<defs>
<font id="webfont55tMdMsW" horiz-adv-x="530" >
<font-face units-per-em="1000" ascent="750" descent="-250" />
<missing-glyph horiz-adv-x="235" />
<glyph unicode=" "  horiz-adv-x="235" />
<glyph unicode="&#x09;" horiz-adv-x="235" />
<glyph unicode="&#xa0;" horiz-adv-x="235" />
<glyph unicode="!" d="M210 0v149h123v-149h-123zM213 251l-4 449h125l-4 -449h-117z" />
<glyph unicode="&#x22;" horiz-adv-x="340" d="M305 452h-104l-2 240h110zM143 452h-105l-2 240h111z" />
<glyph unicode="#" d="M526 170h-101v-170h-100v170h-121v-170h-100v170h-101v96h101v130h-101v96h101v170h100v-170h121v170h100v-170h101v-96h-101v-130h101v-96zM325 266v130h-121v-130h121z" />
<glyph unicode="$" d="M480 672l-9 -104q-72 8 -134 13l-24 -188q104 -31 143 -71t39 -125q0 -104 -62.5 -155.5t-170.5 -52.5l-15 -117q-67 3 -67 7l14 114q-69 7 -142 22l12 104q78 -11 145 -15l25 194q-108 29 -152 72.5t-44 130.5q0 97 62.5 146.5t174.5 49.5h10l13 101h67l-14 -106z M153 503q0 -35 20 -53.5t75 -36.5l22 171q-117 -2 -117 -81zM378 194q0 32 -17.5 50.5t-61.5 34.5l-23 -177q53 3 77.5 24.5t24.5 67.5z" />
<glyph unicode="%" d="M406 289q122 0 122 -143q0 -144 -122 -144q-121 0 -121 144q0 143 121 143zM56 48l368 648l59 -39l-367 -648zM371 146q0 -40 7 -57t28 -17t28.5 17t7.5 57t-7 56t-29 16q-21 0 -28 -16t-7 -56zM128 701q121 0 121 -143q0 -68 -30 -106t-91 -38q-121 0 -121 145 q0 142 121 142zM92 559q0 -41 7.5 -58t28.5 -17t28.5 17t7.5 57t-7.5 56.5t-28.5 16.5t-28.5 -16.5t-7.5 -55.5z" />
<glyph unicode="&#x26;" horiz-adv-x="700" d="M323 710q95 0 144.5 -43.5t49.5 -125.5q0 -67 -31 -110t-108 -92l100 -101q20 73 25 122l111 -2q-15 -106 -47 -192l117 -110l-69 -77l-108 97q-55 -51 -106 -73.5t-127 -22.5q-112 0 -174.5 57.5t-62.5 162.5q0 134 144 204q-31 40 -41 69t-10 77q0 75 51.5 117.5 t141.5 42.5zM278 87q45 0 76.5 13.5t66.5 46.5l-170 178q-96 -45 -96 -124q0 -53 33 -83.5t90 -30.5zM245 534q0 -57 44 -104l19 -19q52 31 72.5 55.5t20.5 62.5q0 74 -78 74t-78 -69z" />
<glyph unicode="'" horiz-adv-x="100" d="M-8 450l-2 242h111l-5 -242h-104z" />
<glyph unicode="(" horiz-adv-x="260" d="M112 750h124q-11 -29 -26.5 -77.5t-42 -168t-26.5 -203.5q0 -167 87 -405l8 -21h-124q-11 25 -27 68t-43 156t-27 202t24 201t49 180z" />
<glyph unicode=")" horiz-adv-x="260" d="M15 750h124q11 -27 27 -72t43 -161.5t27 -205.5t-24 -198t-48 -173l-25 -65h-124q11 28 26.5 74.5t42 162.5t26.5 199q0 84 -24 193.5t-48 177.5z" />
<glyph unicode="*" d="M450 503h-126l39 -122l-65 -19l-41 122l-104 -79l-42 53l106 78l-103 75l41 56l101 -72l41 120l66 -22l-38 -124h125v-66z" />
<glyph unicode="+" horiz-adv-x="506" d="M3 231v104h198v197h104v-197h200v-104h-200v-199h-104v199h-198z" />
<glyph unicode="," horiz-adv-x="170" d="M5 -123l50 250h123l-59 -250h-114z" />
<glyph unicode="-" horiz-adv-x="440" d="M68 225v112h304v-112h-304z" />
<glyph unicode="." horiz-adv-x="248" d="M56 0v149h123v-149h-123z" />
<glyph unicode="/" d="M67 18l281 698l109 -38l-281 -697z" />
<glyph unicode="0" d="M264 672q126 0 189 -81t63 -267q0 -181 -63 -258t-189 -77q-125 0 -188.5 76.5t-63.5 258.5q0 186 63.5 267t188.5 81zM265 559q-69 0 -98 -51t-29 -184q0 -128 29 -175.5t98 -47.5q68 0 96.5 47t28.5 176q0 133 -28 184t-97 51z" />
<glyph unicode="1" d="M40 518l214 142h110v-660h-118v523l-151 -99z" />
<glyph unicode="2" d="M479 0h-426v108l155 156q54 54 76 79t41.5 60t19.5 68q0 45 -28.5 64.5t-91.5 19.5q-70 0 -160 -17l-8 108q103 26 196 26q109 0 161 -46t52 -139q0 -73 -30 -126t-107 -130l-119 -118h269v-113z" />
<glyph unicode="3" d="M56 646q111 26 195 26q123 0 174 -43t51 -136q0 -38 -14.5 -68.5t-30 -44.5t-40.5 -31q51 -24 74.5 -55.5t23.5 -97.5q0 -105 -53 -156t-169 -51q-100 0 -220 23l12 106q110 -15 192 -15q117 0 117 90q0 84 -109 86h-134v107h133q36 0 66 28t30 62q0 82 -111 82 q-36 0 -80 -4t-70 -8l-26 -3z" />
<glyph unicode="4" d="M320 -8v113h-296v96l172 459h130l-168 -442h162v203h118v-203h68v-113h-68v-113h-118z" />
<glyph unicode="5" d="M74 661h397v-113h-291l-16 -153q68 24 112 24q108 0 162.5 -48.5t54.5 -154.5q0 -109 -58.5 -168t-165.5 -59q-46 0 -103 8t-92 15l-34 8l13 105q126 -24 211 -24q49 0 78.5 29.5t29.5 79.5q0 99 -108 99q-29 0 -59 -5.5t-45 -11.5l-16 -6l-91 19z" />
<glyph unicode="6" d="M487 652l-10 -108q-98 14 -182 14q-148 0 -148 -168l23 7q22 7 56.5 15t59.5 8q225 0 225 -211q0 -108 -62.5 -164t-175.5 -56q-247 0 -247 340q0 184 69 263.5t200 79.5q37 0 85 -5t78 -10zM276 312q-61 -3 -130 -24q2 -189 127 -189q117 0 117 110q0 103 -114 103z" />
<glyph unicode="7" d="M51 548v113h418v-139l-244 -538l-109 31l232 509v24h-297z" />
<glyph unicode="8" d="M268 672q109 0 175.5 -46.5t66.5 -131.5q0 -59 -17.5 -89t-67.5 -63q50 -34 72.5 -68t22.5 -95q0 -99 -69.5 -144.5t-182.5 -45.5q-249 0 -249 179q0 46 12.5 78.5t30.5 52t51 43.5q-46 32 -64.5 65t-18.5 88q0 84 64 130.5t174 46.5zM268 101q126 0 126 95q0 62 -79 88 h-93q-77 -26 -77 -90q0 -93 123 -93zM270 559q-114 0 -114 -82q0 -55 66 -89h93q69 34 69 89q0 82 -114 82z" />
<glyph unicode="9" d="M44 8l11 106q98 -14 182 -14q74 0 111.5 44t37.5 124l-23 -6q-23 -7 -58 -14t-60 -7q-108 0 -166 52.5t-58 157.5t64.5 163t173.5 58q248 0 248 -340q0 -186 -68.5 -264.5t-201.5 -78.5q-37 0 -85.5 4.5t-77.5 9.5zM255 348q26 0 59 6t53 12l20 7q-1 85 -32.5 136.5 t-95.5 51.5q-54 0 -85 -28.5t-31 -81.5q0 -103 112 -103z" />
<glyph unicode=":" horiz-adv-x="212" d="M43 300v149h124v-149h-124zM43 0v149h124v-149h-124z" />
<glyph unicode=";" horiz-adv-x="227" d="M11 -115l57 258h124l-75 -258h-106zM60 300v149h123v-149h-123z" />
<glyph unicode="&#x3c;" d="M410 439l-235 -129l235 -134v-120q-49 25 -175 96l-172 96v120l347 191v-120z" />
<glyph unicode="=" d="M25 335v104h469v-104h-469zM25 128v104h469v-104h-469z" />
<glyph unicode="&#x3e;" d="M298 310l-235 129v120l347 -191v-120l-172 -96q-126 -71 -175 -96v120z" />
<glyph unicode="?" horiz-adv-x="386" d="M396 523q0 -49 -18.5 -89t-45 -64.5t-53.5 -44.5t-45.5 -40t-18.5 -41v-38h-123v41q0 37 18.5 67t45.5 50l52 40q26 20 44.5 46.5t18.5 58.5q0 46 -20 65t-80 19q-50 0 -151 -20l-14 112q116 28 170 28q116 0 168 -43t52 -147zM92 0v149h123v-149h-123z" />
<glyph unicode="@" horiz-adv-x="985" d="M941 305v-17q0 -167 -46 -232.5t-141 -65.5q-90 0 -125 47q-92 -46 -159 -46q-89 0 -136.5 56.5t-47.5 194.5q0 133 42.5 200t152.5 67q15 0 40.5 -5.5t42.5 -11.5l18 -6v14h114v-200q0 -92 5.5 -134.5t16.5 -54t36 -11.5q39 0 55.5 36.5t16.5 151.5v18 q0 167 -75.5 238.5t-246.5 71.5q-345 0 -345 -355q0 -195 79 -276t266 -81l143 9l5 -110q-100 -10 -148 -10q-115 0 -197.5 22.5t-143 75.5t-90 145t-29.5 225q0 235 121.5 350.5t338.5 115.5q437 0 437 -422zM478 103q47 0 112 24q-8 44 -8 125v136q-50 13 -77 13 q-63 0 -83 -33t-20 -126q0 -78 19.5 -108.5t56.5 -30.5z" />
<glyph unicode="A" horiz-adv-x="605" d="M23 0l165 692h231l163 -692h-118l-38 136h-251l-34 -136h-118zM279 584l-79 -335h203l-77 335h-47z" />
<glyph unicode="B" horiz-adv-x="609" d="M77 692h260q210 0 210 -174q0 -67 -18.5 -103t-61.5 -60q49 -20 72 -56t23 -104q0 -195 -218 -195h-267v692zM336 295h-143v-187h145q52 0 77.5 22t25.5 74q0 91 -105 91zM331 584h-138v-183h141q92 0 92 97q0 45 -23 65.5t-72 20.5z" />
<glyph unicode="C" horiz-adv-x="535" d="M494 120l3 -106q-117 -25 -196 -25q-150 0 -203.5 84t-53.5 272q0 193 56.5 275.5t200.5 82.5q39 0 88 -6.5t79 -13.5l30 -7l-4 -103q-117 15 -177 15q-90 0 -121 -51t-31 -192q0 -138 30.5 -189.5t125.5 -51.5q24 0 67.5 4t74.5 8z" />
<glyph unicode="D" horiz-adv-x="631" d="M310 0h-233v692h233q83 0 138 -21t85.5 -65.5t42.5 -103t12 -144.5q0 -90 -11.5 -151t-41 -110.5t-85 -73t-140.5 -23.5zM467 358q0 118 -30.5 170t-126.5 52h-117v-468h117q50 0 82 17.5t48 53t21.5 75.5t5.5 100z" />
<glyph unicode="E" horiz-adv-x="557" d="M77 0v692h432v-112h-316v-181h256v-110h-256v-177h316v-112h-432z" />
<glyph unicode="F" horiz-adv-x="543" d="M77 0v692h432v-112h-316v-223h256v-111h-256v-246h-116z" />
<glyph unicode="G" horiz-adv-x="599" d="M353 257v105h195v-350q-142 -23 -229 -23q-154 0 -214.5 88t-60.5 270q0 187 61 271.5t210 84.5q105 0 233 -28l-3 -102q-122 16 -213 16q-98 0 -132.5 -51.5t-34.5 -190.5t32.5 -191.5t131.5 -52.5q13 0 28.5 0.5t28 1.5t22.5 3l18 2h6v147h-79z" />
<glyph unicode="H" horiz-adv-x="674" d="M480 0v295h-286v-295h-117v692h117v-284h286v284h118v-692h-118z" />
<glyph unicode="I" horiz-adv-x="268" d="M75 0v692h118v-692h-118z" />
<glyph unicode="J" horiz-adv-x="312" d="M236 692q0 -106 0.5 -289t0.5 -290q0 -110 -46 -147t-160 -37v110q49 0 68.5 16.5t19.5 65.5v571h117z" />
<glyph unicode="K" horiz-adv-x="594" d="M431 0l-137 283l-100 -8v-275h-117v692h117v-304l98 8l134 296h135l-164 -345l171 -347h-137z" />
<glyph unicode="L" horiz-adv-x="496" d="M462 0h-385v692h117v-579h268v-113z" />
<glyph unicode="M" horiz-adv-x="849" d="M77 0v692h191l157 -526l157 526h190v-692h-118v546h-14l-155 -518h-120l-156 518h-15v-546h-117z" />
<glyph unicode="N" horiz-adv-x="698" d="M77 0v692h190l220 -546h17v546h118v-692h-185l-226 546h-17v-546h-117z" />
<glyph unicode="O" horiz-adv-x="646" d="M323 102q92 0 125 55t33 184t-33.5 189t-124.5 60t-124.5 -60t-33.5 -189q0 -128 33 -183.5t125 -55.5zM323 -11q-155 0 -217 85t-62 267q0 183 62.5 272.5t216.5 89.5t216.5 -89.5t62.5 -272.5t-62 -267.5t-217 -84.5z" />
<glyph unicode="P" horiz-adv-x="597" d="M328 209h-134v-209h-117v692h251q235 0 235 -235q0 -119 -59.5 -183.5t-175.5 -64.5zM194 322h133q116 0 116 135q0 122 -116 122h-133v-257z" />
<glyph unicode="Q" horiz-adv-x="646" d="M470 -152l-90 145q-23 -4 -57 -4q-155 0 -217 85t-62 267q0 183 62.5 272.5t216.5 89.5t216.5 -89.5t62.5 -272.5q0 -120 -24.5 -195.5t-81.5 -113.5l82 -134zM323 102q92 0 125 55t33 184t-33.5 189t-124.5 60t-124.5 -60t-33.5 -189q0 -128 33 -183.5t125 -55.5z" />
<glyph unicode="R" horiz-adv-x="617" d="M443 0l-95 236h-154v-236h-117v692h261q120 0 177 -53t57 -170q0 -145 -109 -199l109 -270h-129zM451 467q0 113 -113 113h-144v-232h146q111 0 111 119z" />
<glyph unicode="S" horiz-adv-x="531" d="M482 679l-9 -105q-140 16 -198 16q-123 0 -123 -82q0 -42 29 -61.5t121 -45.5q112 -33 153.5 -73.5t41.5 -128.5q0 -105 -63.5 -157.5t-172.5 -52.5q-34 0 -86.5 6.5t-88.5 12.5l-36 7l12 105q127 -17 198 -17q62 0 90.5 21.5t28.5 71.5q0 40 -27 60.5t-105 40.5 q-117 30 -164.5 74.5t-47.5 134.5q0 97 63 147.5t177 50.5q34 0 86 -6t87 -12z" />
<glyph unicode="T" horiz-adv-x="484" d="M-8 579v113h500v-113h-190v-579h-118v579h-192z" />
<glyph unicode="U" horiz-adv-x="639" d="M184 223q0 -64 34.5 -90.5t99.5 -26.5q66 0 101.5 27t35.5 90v469h118v-469q0 -122 -63.5 -177t-191.5 -55q-126 0 -189 55t-63 177v469h118v-469z" />
<glyph unicode="V" horiz-adv-x="606" d="M460 692h123l-167 -692h-227l-166 692h123l133 -580h48z" />
<glyph unicode="W" horiz-adv-x="927" d="M28 692h123l112 -572h20l114 570h133l116 -570h19l111 572h123l-152 -692h-183l-101 518l-99 -518h-183z" />
<glyph unicode="X" horiz-adv-x="581" d="M151 692l140 -258l139 258h131l-191 -349l191 -343h-131l-139 254l-140 -254h-131l194 343l-194 349h131z" />
<glyph unicode="Y" horiz-adv-x="565" d="M343 295v-295h-118v296l-212 396h131l139 -265l138 265h131z" />
<glyph unicode="Z" horiz-adv-x="570" d="M60 579v113h450v-120l-301 -443v-16h301v-113h-450v120l301 442v17h-301z" />
<glyph unicode="[" horiz-adv-x="300" d="M271 749v-112h-121v-648h121v-112h-238l-1 872h239z" />
<glyph unicode="\" horiz-adv-x="544" d="M487 24l-126 -53l-315 698l127 56z" />
<glyph unicode="]" horiz-adv-x="300" d="M32 637v112h239l-1 -872h-238v112h122v648h-122z" />
<glyph unicode="^" d="M384 317l-119 230l-120 -230h-120l179 343h120l181 -343h-121z" />
<glyph unicode="_" horiz-adv-x="520" d="M27 5h428v-104h-428v104z" />
<glyph unicode="`" horiz-adv-x="257" d="M24 766l244 -92l-33 -90l-247 81z" />
<glyph unicode="a" horiz-adv-x="526" d="M448 342v-206q1 -26 10 -36t31 -14l-4 -97q-55 0 -82 8t-52 27q-86 -35 -163 -35q-70 0 -107.5 42.5t-37.5 117.5q0 77 41 111.5t126 40.5l124 10v30q0 29 -16.5 44.5t-45.5 15.5q-33 0 -81 -2.5t-80 -4.5l-32 -2l-4 97q129 22 203 22q85 0 127.5 -39.5t42.5 -129.5z M334 222l-110 -6q-66 -6 -66 -64q0 -65 51 -65q53 0 125 20v115z" />
<glyph unicode="b" horiz-adv-x="544" d="M309 511q103 0 149 -58.5t46 -196.5q0 -153 -54 -210t-190 -57q-52 0 -186 13v704h114v-222q68 27 121 27zM259 92q77 0 103 36t26 128q0 81 -22.5 115t-71.5 34q-20 0 -46.5 -3.5t-43.5 -7.5l-16 -3v-294q52 -5 71 -5z" />
<glyph unicode="c" horiz-adv-x="436" d="M250 511q24 0 62 -4.5t64 -9.5l26 -5l-4 -99q-79 9 -117 9q-75 0 -100 -31.5t-25 -114.5q0 -93 24.5 -126t101.5 -33l117 9l3 -99q-102 -18 -155 -18q-113 0 -160 61.5t-47 205.5q0 135 49.5 195t160.5 60z" />
<glyph unicode="d" horiz-adv-x="548" d="M475 700v-700h-115v24q-71 -35 -130 -35q-100 0 -145 61.5t-45 202.5q0 134 50.5 196t157.5 62q47 0 112 -13v202h115zM248 95q49 1 112 22v281q-1 0 -18.5 2t-42 4.5t-43.5 2.5q-52 0 -76 -36.5t-24 -118.5q0 -87 22 -121t70 -36z" />
<glyph unicode="e" horiz-adv-x="507" d="M267 93q79 0 184 9l2 -89q-114 -24 -203 -24q-112 0 -161 61t-49 194q0 267 217 267q213 0 213 -228l-8 -82h-307q1 -56 26.5 -82t85.5 -26zM155 290h202q0 65 -23 92t-77 27q-53 0 -77.5 -28.5t-24.5 -90.5z" />
<glyph unicode="f" horiz-adv-x="340" d="M192 396v-396h-114v396h-57v103h57v31q0 107 31 146.5t111 39.5l109 -11l-1 -94q-48 2 -79 2q-33 0 -45 -18t-12 -66v-30h129v-103h-129z" />
<glyph unicode="g" horiz-adv-x="531" d="M271 -240q-120 0 -176 32.5t-56 118.5q0 37 17.5 64.5t56.5 57.5q-33 22 -33 73q0 23 37 79q-72 45 -72 150q0 90 55 132.5t147 42.5q20 0 45.5 -3t41.5 -7l15 -3l152 3v-93h-72q21 -29 21 -72q0 -99 -49 -136.5t-156 -37.5q-24 0 -44 4q-12 -32 -12 -45q0 -23 18 -30 t87 -7q121 0 165.5 -32t44.5 -118q0 -89 -63.5 -131t-169.5 -42zM285 -16l-97 6q-36 -32 -36 -67q0 -32 27.5 -46t92.5 -14q116 0 116 64q0 37 -20 46.5t-83 10.5zM245 257q49 0 70.5 17.5t21.5 60.5t-20.5 60t-70.5 17q-46 0 -66 -17.5t-20 -59.5q0 -41 19 -59.5t66 -18.5z " />
<glyph unicode="h" horiz-adv-x="562" d="M188 0h-114v710h114v-228q79 29 134 29q100 0 137 -58.5t37 -190.5v-262h-115v261q0 77 -16 110t-65 33q-20 0 -48 -4t-46 -8l-18 -5v-387z" />
<glyph unicode="i" horiz-adv-x="257" d="M72 0v499h114v-499h-114zM72 580v121h114v-121h-114z" />
<glyph unicode="j" horiz-adv-x="263" d="M78 6v493h114v-494q0 -99 -34.5 -146.5t-139.5 -100.5l-51 95q71 42 91 68t20 85zM78 587v121h114v-121h-114z" />
<glyph unicode="k" horiz-adv-x="511" d="M188 0h-114v706h114v-400l60 8l115 185h128l-141 -234l147 -265h-129l-118 202l-62 -8v-194z" />
<glyph unicode="l" horiz-adv-x="259" d="M73 0v706h114v-706h-114z" />
<glyph unicode="m" horiz-adv-x="853" d="M188 0h-114v499h113v-27q42 23 87 31q32 7 52 7q74 -3 112 -42q111 43 174 43q99 0 136.5 -57.5t37.5 -192.5v-261h-114v216q0 113 -13 150.5t-69 37.5q-22 0 -49 -6t-43 -12t-17 -7q7 -16 7 -120v-259h-114v257q0 85 -15.5 116t-66.5 31q-20 0 -46 -6t-42 -12l-16 -5 v-381z" />
<glyph unicode="n" horiz-adv-x="563" d="M188 0h-114v499h114v-25q79 37 134 37q100 0 137 -58.5t37 -191.5v-261h-114v260q0 77 -16 110.5t-66 33.5q-20 0 -48 -6t-46 -12l-18 -5v-381z" />
<glyph unicode="o" horiz-adv-x="529" d="M265 511q119 0 171.5 -66.5t52.5 -192.5q0 -129 -50.5 -196t-173.5 -67t-174 66.5t-51 196.5q0 127 52 193t173 66zM265 92q63 0 85.5 37.5t22.5 122.5q0 81 -24.5 118t-83.5 37q-62 0 -85.5 -36t-23.5 -119q0 -86 22.5 -123t86.5 -37z" />
<glyph unicode="p" horiz-adv-x="545" d="M74 -214v713h114v-27q68 39 125 39q100 0 146 -59t46 -197q0 -151 -52.5 -208.5t-171.5 -57.5q-48 0 -93 9v-212h-114zM292 406q-44 0 -104 -26v-281q28 -7 85 -7q66 0 91 36t25 127q0 81 -24.5 116t-72.5 35z" />
<glyph unicode="q" horiz-adv-x="536" d="M258 -11q-115 0 -166.5 64.5t-51.5 189.5q0 131 52.5 199.5t175.5 68.5q25 0 73.5 -3t84.5 -6l37 -3v-714h-115v221q-35 -17 -90 -17zM268 407q-60 0 -86.5 -40t-26.5 -124q0 -151 103 -151q20 0 42.5 5t35.5 11l12 5v292q-53 2 -80 2z" />
<glyph unicode="r" horiz-adv-x="359" d="M74 0v499h114v-53q66 49 151 65v-122q-90 -18 -151 -52v-337h-114z" />
<glyph unicode="s" horiz-adv-x="494" d="M429 488l-2 -97q-120 16 -180 16q-45 0 -64 -11.5t-19 -39.5q0 -23 20 -32.5t84 -19.5q100 -16 138 -49t38 -106q0 -160 -199 -160q-32 0 -78.5 5.5t-77.5 11.5l-31 5l4 97q121 -16 172 -16q53 0 74.5 12t21.5 42q0 24 -18 34t-78 20q-102 17 -143 48t-41 105 q0 80 53.5 119t135.5 39q73 0 190 -23z" />
<glyph unicode="t" horiz-adv-x="354" d="M331 396h-135v-204q0 -57 8.5 -76t43.5 -19l81 3l5 -98q-67 -14 -102 -14q-86 0 -118 40t-32 148v220h-63v103h63v145h114v-145h135v-103z" />
<glyph unicode="u" horiz-adv-x="560" d="M372 499h114v-499h-114v25q-78 -36 -132 -36q-104 0 -138.5 55.5t-34.5 193.5v261h114v-260q0 -87 14 -117t68 -30q20 0 47 6t44 12l18 5v384z" />
<glyph unicode="v" horiz-adv-x="483" d="M13 499h119l95 -404h30l97 404h116l-128 -499h-202z" />
<glyph unicode="w" horiz-adv-x="752" d="M17 499h113l74 -396h22l90 387h120l90 -387h22l74 396h113l-102 -499h-185l-73 334l-73 -334h-183z" />
<glyph unicode="x" horiz-adv-x="465" d="M16 499h122l94 -168l95 168h122l-143 -250l143 -249h-122l-95 167l-94 -167h-122l142 249z" />
<glyph unicode="y" horiz-adv-x="484" d="M13 499h113l103 -388h26l103 388h113l-186 -712h-113l55 213h-84z" />
<glyph unicode="z" horiz-adv-x="478" d="M53 397v103h371v-103l-233 -294h233v-103h-371v103l234 294h-234z" />
<glyph unicode="{" horiz-adv-x="328" d="M238 171q0 -15 -3.5 -57t-3.5 -59q0 -39 17 -55t69 -20l-1 -112q-109 4 -158.5 44.5t-49.5 128.5q0 21 3.5 65.5t3.5 55.5q0 39 -21 63t-75 39v96q55 14 75.5 35.5t20.5 60.5q0 13 -3.5 60.5t-3.5 67.5q0 93 48.5 132t159.5 43l1 -112q-53 -4 -69.5 -18.5t-16.5 -52.5 q0 -17 3.5 -65t3.5 -62q0 -60 -22 -89t-78 -47q55 -18 77.5 -50t22.5 -92z" />
<glyph unicode="|" d="M201 -196v936h118v-936h-118z" />
<glyph unicode="}" horiz-adv-x="328" d="M98 171q0 60 22.5 92t77.5 50q-56 18 -78 47t-22 89q0 14 3.5 62t3.5 65q0 38 -16.5 52.5t-69.5 18.5l1 112q111 -4 159.5 -43t48.5 -132q0 -20 -3.5 -67.5t-3.5 -60.5q0 -39 20.5 -60.5t75.5 -35.5v-96q-54 -15 -75 -39t-21 -63q0 -11 3.5 -55.5t3.5 -65.5 q0 -88 -49.5 -128.5t-158.5 -44.5l-1 112q52 4 69 20t17 55q0 17 -3.5 59t-3.5 57z" />
<glyph unicode="~" d="M462 384l8 -107l-16 -15q-9 -9 -39 -23.5t-58 -14.5q-29 0 -96 23t-85 23q-20 0 -47 -10.5t-43 -21.5l-17 -10l-9 107q6 6 17 15t43 24t62 15q27 0 92 -23t88 -23q17 0 42 10.5t42 20.5z" />
<glyph unicode="&#xa1;" d="M333 499v-149h-123v149h123zM330 248l4 -449h-125l4 449h117z" />
<glyph unicode="&#xa2;" horiz-adv-x="437" d="M202 -77v108q-90 6 -135.5 57.5t-45.5 160.5q0 206 181 219v107h96v-111l85 -10l-3 -99q-84 4 -122 4q-68 0 -94 -23t-26 -87t26 -86.5t97 -22.5l119 5l4 -99l-85 -11v-112h-97z" />
<glyph unicode="&#xa3;" d="M451 666v-98q-80 10 -129 10q-34 0 -48 -20t-14 -69v-59h159v-100h-159v-231h134l72 16l18 -97l-81 -17l-333 -1v99h78v231h-65v100h65v65q0 105 45.5 145t125.5 40q24 0 57 -3.5t54 -6.5z" />
<glyph unicode="&#xa4;" d="M427 11l-72 73q-42 -22 -90 -22t-90 22l-72 -73l-79 79l73 72q-23 42 -23 90t23 90l-73 72l79 79l72 -73q42 22 90 22t90 -22l72 73l79 -79l-73 -72q23 -42 23 -90t-23 -90l73 -72zM204 191q25 -25 61 -25t61 25q26 25 26 61t-26 61q-25 25 -61 25t-61 -25 q-26 -25 -26 -61t26 -61z" />
<glyph unicode="&#xa5;" horiz-adv-x="540" d="M48 299v96h108l-155 265h131l139 -231l138 231h131l-153 -265h105v-96h-159l-2 -18v-33h161v-96h-161v-152h-118v152h-165v96h165v33l-3 18h-162z" />
<glyph unicode="&#xa6;" d="M201 750h117v-409h-117v409zM201 211h117v-407h-117v407z" />
<glyph unicode="&#xa7;" d="M455 621l-6 -93q-111 15 -159 15q-60 0 -82.5 -16.5t-22.5 -57.5q0 -30 28 -44t110 -32q89 -21 122 -50t33 -99t-48 -137q20 -17 29 -39.5t9 -66.5q0 -93 -50 -135.5t-158 -42.5q-30 0 -76 5.5t-76 10.5l-31 5l11 93q109 -15 164 -15q107 0 107 71q0 33 -26 46t-117 34 q-88 21 -124 52.5t-36 101.5q0 36 20.5 75t41.5 56q-44 32 -44 109q0 175 209 175q31 0 74 -5t71 -11zM270 301q-69 15 -77 18q-6 -9 -14 -31.5t-8 -40.5q0 -34 16 -47.5t62 -23.5q61 -16 93 -28q6 8 13 33.5t7 46.5q0 31 -19 45.5t-73 27.5z" />
<glyph unicode="&#xa8;" horiz-adv-x="257" d="M-24 612v118h109v-118h-109zM187 612v118h109v-118h-109z" />
<glyph unicode="&#xa9;" d="M9 433q0 113 73 190.5t183 77.5q112 0 184 -78.5t72 -188.5q0 -113 -72 -189.5t-186 -76.5q-107 0 -180.5 77t-73.5 188zM66 434q0 -87 56.5 -147.5t141.5 -60.5q87 0 144 60.5t57 147.5t-57.5 148.5t-142.5 61.5t-142 -61.5t-57 -148.5zM342 376v-89q-29 -8 -75 -8 q-68 0 -97.5 37.5t-29.5 121.5q0 76 30 113t97 37q20 0 39 -1.5t28 -2.5l9 -2l-1 -91q-30 6 -75 6q-38 0 -38 -59q0 -67 38 -67z" />
<glyph unicode="&#xaa;" horiz-adv-x="518" d="M346 571v-134q6 -20 37 -23l-2 -28q-32 1 -54 22q-63 -22 -119 -22q-31 0 -50.5 22t-19.5 58q0 70 75 76l102 7v23q0 32 -12 43.5t-40 11.5l-104 -7l-2 31q69 8 106 8q43 0 63 -20.5t20 -67.5zM315 520l-97 -6q-25 -2 -36 -13.5t-11 -36.5q0 -46 40 -46q20 0 46 4t42 8 l16 5v85z" />
<glyph unicode="&#xab;" horiz-adv-x="642" d="M302 327l-114 -81l114 -92v-116l-212 164v84l212 157v-116zM570 327l-115 -81l115 -92v-116l-212 164v84l212 157v-116z" />
<glyph unicode="&#xac;" d="M52 361h424v-261h-111v150h-313v111z" />
<glyph unicode="&#xad;" horiz-adv-x="440" d="M68 225v112h304v-112h-304z" />
<glyph unicode="&#xae;" d="M-6 434q0 118 73.5 199t197.5 81t200 -80.5t76 -199.5q0 -117 -76.5 -199t-199.5 -82q-124 0 -197.5 81t-73.5 200zM50 434q0 -92 62.5 -159t152.5 -67t153 66.5t63 159.5q0 95 -63 160.5t-153 65.5q-92 0 -153.5 -65t-61.5 -161zM303 276l-39 107h-36v-107h-83v315h119 q60 0 91 -23t31 -77q0 -39 -9 -60t-33 -37l49 -118h-90zM227 527v-81h38q40 0 40 40q0 41 -44 41h-34z" />
<glyph unicode="&#xaf;" horiz-adv-x="257" d="M-24 626v99h315v-99h-315z" />
<glyph unicode="&#xb0;" d="M97 564q0 65 41 106t106 41t106 -41t41 -106t-41 -105.5t-106 -40.5t-106 40.5t-41 105.5zM164 564q0 -36 22 -58.5t58 -22.5t59 22.5t23 58.5t-23 59t-59 23t-58 -23t-22 -59z" />
<glyph unicode="&#xb1;" d="M24 306v104h190v122h104v-122h193v-104h-193v-117h-104v117h-190zM24 144h487v-104h-487v104z" />
<glyph unicode="&#xb2;" horiz-adv-x="265" d="M241 478h-224v79l78 68q47 40 47 65q0 22 -41 22l-78 -7l-4 86q69 10 113 10q58 0 82.5 -22.5t24.5 -74.5q0 -33 -13.5 -56.5t-44.5 -48.5l-45 -38h105v-83z" />
<glyph unicode="&#xb3;" horiz-adv-x="265" d="M26 791q65 10 106 10q116 0 116 -88q0 -51 -33 -71q39 -16 39 -74q0 -50 -30 -75.5t-84 -25.5q-22 0 -51.5 2.5t-48.5 4.5l-18 2l5 81q60 -7 96 -7t36 25q0 23 -33 23h-66v75h65q11 0 18.5 6.5t7.5 17.5q0 21 -33 21l-87 -6z" />
<glyph unicode="&#xb4;" horiz-adv-x="268" d="M7 674l244 93l39 -108l-248 -80z" />
<glyph unicode="&#xb5;" d="M62 -226v726h114v-282q1 -73 16 -99.5t66 -26.5q44 0 110 23v384h114v-499h-114v25q-78 -36 -132 -36q-38 0 -60 12v-227h-114z" />
<glyph unicode="&#x3bc;" d="M62 -226v726h114v-282q1 -73 16 -99.5t66 -26.5q44 0 110 23v384h114v-499h-114v25q-78 -36 -132 -36q-38 0 -60 12v-227h-114z" />
<glyph unicode="&#xb6;" d="M379 0v611h-80v-611h-98v315h-7q-83 0 -134.5 53t-51.5 138t52.5 139.5t135.5 54.5h330v-89h-48v-611h-99z" />
<glyph unicode="&#xb7;" horiz-adv-x="248" d="M56 220v149h123v-149h-123z" />
<glyph unicode="&#xb8;" horiz-adv-x="833" d="M566 -127q0 -53 -27.5 -79.5t-77.5 -26.5q-19 0 -42 2.5t-36 4.5l-13 3l4 68q34 -2 54 -2q40 0 40 30q0 26 -40 26h-30v102h49v-42q63 -1 91 -18.5t28 -67.5z" />
<glyph unicode="&#xb9;" horiz-adv-x="265" d="M21 717l104 73h84v-312h-92v211l-54 -37z" />
<glyph unicode="&#xba;" horiz-adv-x="526" d="M259 659q58 0 85.5 -32.5t27.5 -102.5q0 -138 -113 -138q-115 0 -115 138q0 135 115 135zM259 418q43 0 61 24.5t18 81.5t-18 80t-61 23t-62 -23.5t-19 -79.5q0 -57 19 -81.5t62 -24.5z" />
<glyph unicode="&#xbb;" horiz-adv-x="642" d="M454 246l-114 81v116l212 -157v-84l-212 -164v116zM187 246l-115 81v116l212 -157v-84l-212 -164v116z" />
<glyph unicode="&#xbf;" horiz-adv-x="386" d="M6 -24q0 49 18.5 89t45.5 64.5t53.5 44.5t45 40t18.5 41v38h123v-41q0 -37 -18.5 -67t-45.5 -51l-52 -40q-26 -19 -44.5 -45.5t-18.5 -58.5q0 -46 20 -65t80 -19q50 0 151 20l14 -112q-116 -28 -170 -28q-116 0 -168 43t-52 147zM310 499v-149h-123v149h123z" />
<glyph unicode="&#xc0;" horiz-adv-x="604" d="M26 0l165 692h231l163 -692h-118l-38 136h-251l-34 -136h-118zM282 584l-79 -335h203l-77 335h-47zM184 948l244 -92l-35 -96l-247 81z" />
<glyph unicode="&#xc1;" horiz-adv-x="604" d="M26 0l165 692h231l163 -692h-118l-38 136h-251l-34 -136h-118zM282 584l-79 -335h203l-77 335h-47zM162 874l244 93l39 -108l-248 -80z" />
<glyph unicode="&#xc2;" horiz-adv-x="604" d="M26 0l165 692h231l163 -692h-118l-38 136h-251l-34 -136h-118zM282 584l-79 -335h203l-77 335h-47zM127 784l129 164h92l130 -164h-123l-52 69l-53 -69h-123z" />
<glyph unicode="&#xc3;" horiz-adv-x="604" d="M26 0l166 692h230l163 -692h-118l-38 136h-251l-34 -136h-118zM282 584l-79 -335h203l-77 335h-47zM447 940l25 -87q-6 -7 -15.5 -16.5t-36 -26t-48.5 -16.5q-27 0 -81 23t-68 23q-12 0 -31.5 -10t-33.5 -20l-13 -11l-25 86q6 7 16 17t37 26.5t49 16.5q32 0 84 -22.5 t63 -22.5t30.5 10t33.5 20z" />
<glyph unicode="&#xc4;" horiz-adv-x="604" d="M26 0l166 692h230l163 -692h-118l-38 136h-251l-34 -136h-118zM282 584l-79 -335h203l-77 335h-47zM166 812v118h110v-118h-110zM377 812v118h109v-118h-109z" />
<glyph unicode="&#xc5;" horiz-adv-x="604" d="M446 728q0 -35 -18 -63l157 -665h-118l-38 136h-251l-34 -136h-118l158 665q-17 26 -17 63q0 56 39.5 87.5t99.5 31.5t100 -31.5t40 -87.5zM282 584l-79 -335h203l-77 335h-47zM256 728q0 -28 28 -36h44q29 8 29 36q0 18 -14 28.5t-37 10.5t-36.5 -10.5t-13.5 -28.5z" />
<glyph unicode="&#xc6;" horiz-adv-x="898" d="M428 0v136h-225l-39 -136h-119l198 692h617v-112h-316v-172h256v-112h-256v-184h316v-112h-432zM326 580l-94 -331h196l1 331h-103z" />
<glyph unicode="&#xc7;" horiz-adv-x="537" d="M429 -127q0 -53 -27.5 -79.5t-77.5 -26.5q-19 0 -42 2.5t-36 4.5l-13 3l4 68q34 -2 54 -2q40 0 40 30q0 26 -40 26h-30v92q-125 10 -171 94t-46 260q0 193 56.5 275.5t200.5 82.5q39 0 88 -6.5t79 -13.5l30 -7l-4 -103q-117 15 -177 15q-90 0 -121 -51t-31 -192 q0 -138 30.5 -189.5t125.5 -51.5q24 0 67.5 4t74.5 8l31 4l3 -106q-109 -23 -187 -25v-30q63 -1 91 -18.5t28 -67.5z" />
<glyph unicode="&#xc8;" horiz-adv-x="557" d="M77 0v692h432v-112h-316v-181h256v-110h-256v-177h316v-112h-432zM187 948l244 -92l-35 -96l-247 81z" />
<glyph unicode="&#xc9;" horiz-adv-x="572" d="M81 0v692h432v-112h-316v-181h256v-110h-256v-177h316v-112h-432zM162 874l244 93l39 -108l-248 -80z" />
<glyph unicode="&#xca;" horiz-adv-x="572" d="M81 0v692h432v-112h-316v-181h256v-110h-256v-177h316v-112h-432zM134 784l129 164h92l130 -164h-123l-52 69l-53 -69h-123z" />
<glyph unicode="&#xcb;" horiz-adv-x="572" d="M81 0v692h432v-112h-316v-181h256v-110h-256v-177h316v-112h-432zM147 812v118h109v-118h-109zM358 812v118h109v-118h-109z" />
<glyph unicode="&#xcc;" horiz-adv-x="268" d="M75 0v692h118v-692h-118zM7 948l244 -92l-35 -96l-247 81z" />
<glyph unicode="&#xcd;" horiz-adv-x="268" d="M75 0v692h118v-692h-118zM0 864l244 93l38 -108l-247 -80z" />
<glyph unicode="&#xce;" horiz-adv-x="268" d="M75 0v692h118v-692h-118zM-50 790l132 144h104l132 -144h-129l-54 53l-53 -53h-132z" />
<glyph unicode="&#xcf;" horiz-adv-x="268" d="M75 0v692h118v-692h-118zM-28 803v118h109v-118h-109zM189 803v118h109v-118h-109z" />
<glyph unicode="&#xd0;" horiz-adv-x="631" d="M18 288v112h59v292h233q83 0 138 -21t85.5 -65.5t42.5 -103t12 -144.5q0 -90 -11.5 -151t-41 -110.5t-85 -73t-140.5 -23.5h-233v288h-59zM467 358q0 118 -30.5 170t-126.5 52h-117v-180h137v-112h-137v-176h117q50 0 82 17.5t48 53t21.5 75.5t5.5 100z" />
<glyph unicode="&#xd1;" horiz-adv-x="687" d="M68 0v692h190l220 -546h17v546h118v-692h-185l-225 546h-18v-546h-117zM485 940l25 -87q-6 -7 -15.5 -16.5t-36 -26t-48.5 -16.5q-27 0 -81 23t-68 23q-12 0 -31.5 -10t-33.5 -20l-13 -11l-25 86q6 7 16 17t37 26.5t49 16.5q32 0 84 -22.5t63 -22.5t30.5 10t33.5 20z" />
<glyph unicode="&#xd2;" horiz-adv-x="656" d="M328 102q92 0 125 55t33 184t-33.5 189t-124.5 60t-124.5 -60t-33.5 -189q0 -128 33 -183.5t125 -55.5zM328 -11q-155 0 -217 85t-62 267q0 183 62.5 272.5t216.5 89.5t216.5 -89.5t62.5 -272.5t-62 -267.5t-217 -84.5zM212 948l244 -92l-35 -96l-247 81z" />
<glyph unicode="&#xd3;" horiz-adv-x="656" d="M328 102q92 0 125 55t33 184t-33.5 189t-124.5 60t-124.5 -60t-33.5 -189q0 -128 33 -183.5t125 -55.5zM328 -11q-155 0 -217 85t-62 267q0 183 62.5 272.5t216.5 89.5t216.5 -89.5t62.5 -272.5t-62 -267.5t-217 -84.5zM175 874l244 93l39 -108l-248 -80z" />
<glyph unicode="&#xd4;" horiz-adv-x="656" d="M328 102q92 0 125 55t33 184t-33.5 189t-124.5 60t-124.5 -60t-33.5 -189q0 -128 33 -183.5t125 -55.5zM328 -11q-155 0 -217 85t-62 267q0 183 62.5 272.5t216.5 89.5t216.5 -89.5t62.5 -272.5t-62 -267.5t-217 -84.5zM151 784l129 164h92l130 -164h-123l-52 69l-53 -69 h-123z" />
<glyph unicode="&#xd5;" horiz-adv-x="656" d="M328 102q92 0 125 55t33 184t-33.5 189t-124.5 60t-124.5 -60t-33.5 -189q0 -128 33 -183.5t125 -55.5zM328 -11q-155 0 -217 85t-62 267q0 183 62.5 272.5t216.5 89.5t216.5 -89.5t62.5 -272.5t-62 -267.5t-217 -84.5zM471 940l25 -87q-6 -7 -15.5 -16.5t-36 -26 t-48.5 -16.5q-27 0 -81 23t-68 23q-12 0 -31.5 -10t-33.5 -20l-13 -11l-25 86q6 7 16 17t37 26.5t49 16.5q32 0 84 -22.5t63 -22.5t30.5 10t33.5 20z" />
<glyph unicode="&#xd6;" horiz-adv-x="656" d="M328 102q92 0 125 55t33 184t-33.5 189t-124.5 60t-124.5 -60t-33.5 -189q0 -128 33 -183.5t125 -55.5zM328 -11q-155 0 -217 85t-62 267q0 183 62.5 272.5t216.5 89.5t216.5 -89.5t62.5 -272.5t-62 -267.5t-217 -84.5zM163 812v118h110v-118h-110zM374 812v118h110v-118 h-110z" />
<glyph unicode="&#xd7;" horiz-adv-x="591" d="M243 543l178 -181l179 181l75 -74l-179 -181l179 -181l-75 -73l-179 180l-178 -180l-74 73l178 181l-178 181z" />
<glyph unicode="&#xd8;" horiz-adv-x="646" d="M323 -11q-48 0 -95 10l-58 -124l-104 46l61 130q-83 79 -83 290q0 183 62.5 272.5t216.5 89.5q53 0 102 -13l56 120l106 -40l-64 -138q79 -85 79 -291q0 -183 -62 -267.5t-217 -84.5zM165 341q0 -112 22 -162l188 404q-26 7 -52 7q-91 0 -124.5 -60t-33.5 -189zM323 102 q92 0 125 55t33 184q0 104 -20 159l-183 -394q17 -4 45 -4z" />
<glyph unicode="&#xd9;" horiz-adv-x="639" d="M184 223q0 -64 34.5 -90.5t99.5 -26.5q66 0 101.5 27t35.5 90v469h118v-469q0 -122 -63.5 -177t-191.5 -55q-126 0 -189 55t-63 177v469h118v-469zM85 948l244 -92l-35 -96l-247 81z" />
<glyph unicode="&#xda;" horiz-adv-x="642" d="M188 223q0 -64 34.5 -90.5t99.5 -26.5q66 0 101.5 27t35.5 90v469h118v-469q0 -122 -63.5 -177t-191.5 -55q-126 0 -189 55t-63 177v469h118v-469zM172 874l244 93l39 -108l-248 -80z" />
<glyph unicode="&#xdb;" horiz-adv-x="642" d="M188 223q0 -64 34.5 -90.5t99.5 -26.5q66 0 101.5 27t35.5 90v469h118v-469q0 -122 -63.5 -177t-191.5 -55q-126 0 -189 55t-63 177v469h118v-469zM148 784l129 164h92l130 -164h-123l-52 69l-53 -69h-123z" />
<glyph unicode="&#xdc;" horiz-adv-x="642" d="M188 223q0 -64 34.5 -90.5t99.5 -26.5q66 0 101.5 27t35.5 90v469h118v-469q0 -122 -63.5 -177t-191.5 -55q-126 0 -189 55t-63 177v469h118v-469zM188 812v118h109v-118h-109zM399 812v118h109v-118h-109z" />
<glyph unicode="&#xdd;" horiz-adv-x="540" d="M331 295v-295h-118v296l-212 396h131l139 -265l138 265h131zM105 874l244 93l39 -108l-248 -80z" />
<glyph unicode="&#xde;" horiz-adv-x="547" d="M288 220q59 0 88.5 35.5t29.5 100.5q0 62 -29 91.5t-89 29.5h-132v-257h132zM289 106h-133v-106h-118v692h118v-103h133q237 0 237 -233q0 -119 -60.5 -184.5t-176.5 -65.5z" />
<glyph unicode="&#xdf;" horiz-adv-x="620" d="M188 0h-114v530q0 100 53 143t166 43q116 0 167 -34.5t51 -116.5q0 -53 -20.5 -80.5t-67.5 -47.5q-37 -16 -49 -24.5t-12 -21.5q0 -15 15.5 -27t76.5 -42q73 -36 99.5 -63.5t26.5 -79.5q0 -108 -52 -148t-186 -40q-17 0 -44.5 5t-46.5 10l-19 5l4 90q89 -4 106 -4 q66 0 93 15t27 51q0 18 -18.5 33.5t-78.5 43.5q-70 31 -95.5 61t-25.5 78q0 44 19 69.5t60 43.5q43 18 56.5 31.5t13.5 33.5q0 31 -23.5 43t-76.5 12q-52 0 -78.5 -19.5t-26.5 -67.5v-525z" />
<glyph unicode="&#xe0;" horiz-adv-x="532" d="M433 342v-206q1 -26 10 -36t31 -14l-4 -97q-55 0 -82 8t-52 27q-86 -35 -163 -35q-70 0 -107.5 42.5t-37.5 117.5q0 77 41 111.5t126 40.5l124 10v30q0 29 -16.5 44.5t-45.5 15.5q-33 0 -81 -2.5t-80 -4.5l-32 -2l-4 97q129 22 203 22q85 0 127.5 -39.5t42.5 -129.5z M319 222l-110 -6q-66 -6 -66 -64q0 -65 51 -65q53 0 125 20v115zM130 766l244 -92l-33 -90l-247 81z" />
<glyph unicode="&#xe1;" horiz-adv-x="532" d="M433 342v-206q1 -26 10 -36t31 -14l-4 -97q-55 0 -82 8t-52 27q-86 -35 -163 -35q-70 0 -107.5 42.5t-37.5 117.5q0 77 41 111.5t126 40.5l124 10v30q0 29 -16.5 44.5t-45.5 15.5q-33 0 -81 -2.5t-80 -4.5l-32 -2l-4 97q129 22 203 22q85 0 127.5 -39.5t42.5 -129.5z M319 222l-110 -6q-66 -6 -66 -64q0 -65 51 -65q53 0 125 20v115zM98 674l244 93l39 -108l-248 -80z" />
<glyph unicode="&#xe2;" horiz-adv-x="532" d="M433 342v-206q1 -26 10 -36t31 -14l-4 -97q-55 0 -82 8t-52 27q-86 -35 -163 -35q-70 0 -107.5 42.5t-37.5 117.5q0 77 41 111.5t126 40.5l124 10v30q0 29 -16.5 44.5t-45.5 15.5q-33 0 -81 -2.5t-80 -4.5l-32 -2l-4 97q129 22 203 22q85 0 127.5 -39.5t42.5 -129.5z M319 222l-110 -6q-66 -6 -66 -64q0 -65 51 -65q53 0 125 20v115zM68 584l129 164h92l130 -164h-123l-52 69l-53 -69h-123z" />
<glyph unicode="&#xe3;" horiz-adv-x="532" d="M433 342v-206q1 -26 10 -36t31 -14l-4 -97q-55 0 -82 8t-52 27q-86 -35 -164 -35q-70 0 -107 42.5t-37 117.5q0 77 41 111.5t126 40.5l124 10v30q0 29 -16.5 44.5t-45.5 15.5q-33 0 -81 -2.5t-80 -4.5l-32 -2l-4 97q129 22 203 22q85 0 127.5 -39.5t42.5 -129.5zM319 222 l-110 -6q-66 -6 -66 -64q0 -65 51 -65q53 0 125 20v115zM388 740l25 -87q-6 -7 -15.5 -16.5t-36 -26t-48.5 -16.5q-27 0 -81 23t-68 23q-12 0 -31.5 -10t-32.5 -20l-14 -11l-25 86q6 7 16 17t37 26.5t49 16.5q32 0 84 -22.5t63 -22.5t30.5 10t33.5 20z" />
<glyph unicode="&#xe4;" horiz-adv-x="532" d="M433 342v-206q1 -26 10 -36t31 -14l-4 -97q-55 0 -82 8t-52 27q-86 -35 -164 -35q-70 0 -107 42.5t-37 117.5q0 77 41 111.5t126 40.5l124 10v30q0 29 -16.5 44.5t-45.5 15.5q-33 0 -81 -2.5t-80 -4.5l-32 -2l-4 97q129 22 203 22q85 0 127.5 -39.5t42.5 -129.5zM319 222 l-110 -6q-66 -6 -66 -64q0 -65 51 -65q53 0 125 20v115zM89 612v118h109v-118h-109zM300 612v118h109v-118h-109z" />
<glyph unicode="&#xe5;" horiz-adv-x="532" d="M433 342v-206q1 -26 10 -36t31 -14l-4 -97q-55 0 -82 8t-52 27q-86 -35 -163 -35q-70 0 -107.5 42.5t-37.5 117.5q0 77 41 111.5t126 40.5l124 10v30q0 29 -16.5 44.5t-45.5 15.5q-33 0 -81 -2.5t-80 -4.5l-32 -2l-4 97q129 22 203 22q85 0 127.5 -39.5t42.5 -129.5z M319 222l-110 -6q-66 -6 -66 -64q0 -65 51 -65q53 0 125 20v115zM144 640q0 47 32.5 80t80.5 33q47 0 79.5 -33t32.5 -80q0 -48 -32.5 -80t-79.5 -32q-48 0 -80.5 32t-32.5 80zM221 640q0 -16 10.5 -26.5t26.5 -10.5q15 0 25.5 10.5t10.5 26.5t-10.5 26.5t-25.5 10.5 q-16 0 -26.5 -10.5t-10.5 -26.5z" />
<glyph unicode="&#xe6;" horiz-adv-x="828" d="M569 93q80 0 185 9l2 -89q-115 -24 -204 -24q-101 0 -151 50l-26 -12q-85 -38 -178 -38q-70 0 -107 42t-37 118q0 80 43 113.5t133 39.5l115 9v30q0 29 -17 44.5t-45 15.5q-33 0 -81 -2.5t-80 -4.5l-32 -3l-4 100q129 20 203 20q91 0 131 -49q50 49 141 49 q107 0 159.5 -56t52.5 -172l-8 -82h-306q1 -56 26.5 -82t84.5 -26zM219 87q23 0 55.5 5.5t51 10t23.5 6.5q-6 51 -6 113l-109 -6q-66 -5 -66 -64q0 -65 51 -65zM458 290h201q0 65 -22.5 92t-76.5 27t-78 -28.5t-24 -90.5z" />
<glyph unicode="&#xe7;" horiz-adv-x="436" d="M387 -127q0 -53 -27.5 -79.5t-77.5 -26.5q-19 0 -42 2.5t-36 4.5l-13 3l4 68q34 -2 54 -2q40 0 40 30q0 26 -40 26h-30v91q-97 7 -138 69t-41 197t49.5 195t160.5 60q24 0 62 -4.5t64 -9.5l26 -5l-4 -99q-79 9 -117 9q-75 0 -100 -31.5t-25 -114.5q0 -93 24.5 -126 t101.5 -33l117 9l3 -99q-79 -14 -134 -17v-31q63 -1 91 -18.5t28 -67.5z" />
<glyph unicode="&#xe8;" horiz-adv-x="499" d="M265 93q79 0 184 9l2 -89q-114 -24 -203 -24q-112 0 -161 61t-49 194q0 267 217 267q213 0 213 -228l-8 -82h-307q1 -56 26.5 -82t85.5 -26zM153 290h202q0 65 -23 92t-77 27q-53 0 -77.5 -28.5t-24.5 -90.5zM127 750l244 -92l-33 -90l-247 81z" />
<glyph unicode="&#xe9;" horiz-adv-x="499" d="M265 93q79 0 184 9l2 -89q-114 -24 -203 -24q-112 0 -161 61t-49 194q0 267 217 267q213 0 213 -228l-8 -82h-307q1 -56 26.5 -82t85.5 -26zM153 290h202q0 65 -23 92t-77 27q-53 0 -77.5 -28.5t-24.5 -90.5zM124 674l244 93l39 -108l-248 -80z" />
<glyph unicode="&#xea;" horiz-adv-x="499" d="M265 93q79 0 184 9l2 -89q-114 -24 -203 -24q-112 0 -161 61t-49 194q0 267 217 267q213 0 213 -228l-8 -82h-307q1 -56 26.5 -82t85.5 -26zM153 290h202q0 65 -23 92t-77 27q-53 0 -77.5 -28.5t-24.5 -90.5zM88 584l129 164h92l130 -164h-123l-52 69l-53 -69h-123z" />
<glyph unicode="&#xeb;" horiz-adv-x="499" d="M265 93q80 0 184 9l2 -89q-114 -24 -203 -24q-112 0 -161 61t-49 194q0 267 218 267q107 0 159.5 -56t52.5 -172l-8 -82h-306q1 -56 26.5 -82t84.5 -26zM153 290h202q0 65 -22.5 92t-76.5 27t-78 -28t-25 -91zM95 612v118h109v-118h-109zM306 612v118h109v-118h-109z" />
<glyph unicode="&#xec;" horiz-adv-x="261" d="M76 0v499h114v-499h-114zM19 766l244 -92l-33 -90l-247 81z" />
<glyph unicode="&#xed;" horiz-adv-x="261" d="M10 674l244 93l39 -108l-248 -80zM76 0v499h114v-499h-114z" />
<glyph unicode="&#xee;" horiz-adv-x="267" d="M76 0v499h114v-499h-114zM-47 584l129 164h92l130 -164h-123l-52 69l-53 -69h-123z" />
<glyph unicode="&#xef;" horiz-adv-x="261" d="M-31 612v118h109v-118h-109zM179 612v118h110v-118h-110zM76 0v499h114v-499h-114z" />
<glyph unicode="&#xf0;" d="M153 485l-47 66l56 43q-16 4 -87 17l17 97q105 -13 174 -35l97 74l47 -67l-57 -43q153 -86 153 -288q0 -187 -58 -272.5t-189 -85.5q-112 0 -171.5 61t-59.5 178q0 94 59 149.5t156 55.5q32 0 67 -6.5t54 -13.5l19 -7q-5 56 -33 93t-92 63zM250 335q-46 0 -73 -30.5 t-27 -74.5q0 -133 109 -133q64 0 94 49.5t31 161.5q-62 27 -134 27z" />
<glyph unicode="&#xf1;" horiz-adv-x="574" d="M196 0h-114v499h114v-25q79 37 134 37q100 0 137 -58.5t37 -191.5v-261h-114v260q0 77 -16 110.5t-66 33.5q-20 0 -48 -6t-46 -12l-18 -5v-381zM441 740l25 -87q-6 -7 -15.5 -16.5t-36 -26t-48.5 -16.5q-27 0 -81 23t-68 23q-12 0 -31.5 -10t-33.5 -20l-13 -11l-25 86 q6 7 16 17t37 26.5t49 16.5q32 0 84 -22.5t63 -22.5t30.5 10t33.5 20z" />
<glyph unicode="&#xf2;" horiz-adv-x="529" d="M265 511q119 0 171.5 -66.5t52.5 -192.5q0 -129 -50.5 -196t-173.5 -67t-174 66.5t-51 196.5q0 127 52 193t173 66zM265 92q63 0 85.5 37.5t22.5 122.5q0 81 -24.5 118t-83.5 37q-62 0 -85.5 -36t-23.5 -119q0 -86 22.5 -123t86.5 -37zM162 766l244 -92l-33 -90l-247 81z " />
<glyph unicode="&#xf3;" horiz-adv-x="529" d="M265 511q119 0 171.5 -66.5t52.5 -192.5q0 -129 -50.5 -196t-173.5 -67t-174 66.5t-51 196.5q0 127 52 193t173 66zM265 92q63 0 85.5 37.5t22.5 122.5q0 81 -24.5 118t-83.5 37q-62 0 -85.5 -36t-23.5 -119q0 -86 22.5 -123t86.5 -37zM112 674l244 93l39 -108l-248 -80z " />
<glyph unicode="&#xf4;" horiz-adv-x="529" d="M265 511q119 0 171.5 -66.5t52.5 -192.5q0 -129 -50.5 -196t-173.5 -67t-174 66.5t-51 196.5q0 127 52 193t173 66zM265 92q63 0 85.5 37.5t22.5 122.5q0 81 -24.5 118t-83.5 37q-62 0 -85.5 -36t-23.5 -119q0 -86 22.5 -123t86.5 -37zM84 584l129 164h92l130 -164h-123 l-52 69l-53 -69h-123z" />
<glyph unicode="&#xf5;" horiz-adv-x="529" d="M265 511q119 0 171.5 -66.5t52.5 -192.5q0 -129 -50.5 -196t-173.5 -67t-174 66.5t-51 196.5q0 127 52 193t173 66zM265 92q63 0 85.5 37.5t22.5 122.5q0 81 -24.5 118t-83.5 37q-62 0 -85.5 -36t-23.5 -119q0 -86 22.5 -123t86.5 -37zM411 740l25 -87q-6 -7 -15.5 -16.5 t-36 -26t-48.5 -16.5q-27 0 -80.5 23t-67.5 23q-12 0 -31.5 -10t-32.5 -20l-14 -11l-26 86q6 7 16 17t37 26.5t49 16.5q32 0 84.5 -22.5t62.5 -22.5q11 0 30.5 10t33.5 20z" />
<glyph unicode="&#xf6;" horiz-adv-x="529" d="M265 511q119 0 171.5 -66.5t52.5 -192.5q0 -129 -50.5 -196t-173.5 -67t-174 66.5t-51 196.5q0 127 52 193t173 66zM265 92q63 0 85.5 37.5t22.5 122.5q0 81 -24.5 118t-83.5 37q-62 0 -85.5 -36t-23.5 -119q0 -86 22.5 -123t86.5 -37zM103 612v118h109v-118h-109z M314 612v118h109v-118h-109z" />
<glyph unicode="&#xf7;" d="M44 280v113h123v108h173v-108h117v-113h-413zM197 65v121h114v-121h-114z" />
<glyph unicode="&#xf8;" horiz-adv-x="529" d="M265 511q33 0 62 -6l40 102l71 -27l-42 -101q93 -57 93 -227q0 -129 -50.5 -196t-173.5 -67q-37 0 -67 6l-43 -104l-70 26l44 104q-89 57 -89 231q0 127 52 193t173 66zM265 92q63 0 85.5 37.5t22.5 122.5q0 83 -25 119l-112 -277q18 -2 29 -2zM265 407q-62 0 -85.5 -36 t-23.5 -119q0 -88 22 -122l109 275q-14 2 -22 2z" />
<glyph unicode="&#xf9;" horiz-adv-x="560" d="M140 766l243 -93l-40 -103l-245 89zM372 499h114v-499h-114v25q-78 -36 -132 -36q-104 0 -138.5 55.5t-34.5 193.5v261h114v-260q0 -87 14 -117t68 -30q20 0 47 6t44 12l18 5v384z" />
<glyph unicode="&#xfa;" horiz-adv-x="560" d="M372 499h114v-499h-114v25q-78 -36 -132 -36q-104 0 -138.5 55.5t-34.5 193.5v261h114v-260q0 -87 14 -117t68 -30q20 0 47 6t44 12l18 5v384zM126 674l244 93l39 -108l-248 -80z" />
<glyph unicode="&#xfb;" horiz-adv-x="560" d="M372 499h114v-499h-114v25q-78 -36 -132 -36q-104 0 -138.5 55.5t-34.5 193.5v261h114v-260q0 -87 14 -117t68 -30q20 0 47 6t44 12l18 5v384zM82 584l129 164h92l130 -164h-123l-52 69l-53 -69h-123z" />
<glyph unicode="&#xfc;" horiz-adv-x="560" d="M372 499h114v-499h-114v25q-78 -36 -132 -36q-104 0 -138.5 55.5t-34.5 193.5v261h114v-260q0 -87 14 -117t68 -30q20 0 47 6t44 12l18 5v384zM121 612v118h109v-118h-109zM332 612v118h109v-118h-109z" />
<glyph unicode="&#xfd;" horiz-adv-x="480" d="M5 499h113l103 -388h26l103 388h113l-186 -712h-113l55 213h-84zM113 674l244 93l39 -108l-248 -80z" />
<glyph unicode="&#xfe;" horiz-adv-x="538" d="M272 92q77 0 103 36t26 128q0 81 -22.5 115t-71.5 34q-20 0 -46.5 -3.5t-42.5 -7.5l-17 -3v-294q52 -5 71 -5zM322 511q103 0 149 -58.5t46 -196.5q0 -153 -54.5 -210t-190.5 -57q-11 0 -38.5 1.5t-32.5 1.5v-206h-114v920h114v-222q68 27 121 27z" />
<glyph unicode="&#xff;" horiz-adv-x="484" d="M13 499h113l103 -388h26l103 388h113l-186 -712h-113l55 213h-84zM86 612v118h109v-118h-109zM297 612v118h109v-118h-109z" />
<glyph unicode="&#x152;" horiz-adv-x="944" d="M877 0h-429q-70 -11 -126 -11q-79 0 -130.5 21.5t-80 68t-40 109.5t-11.5 157q0 194 58 276t204 82q57 0 125 -11h430v-113h-314v-171h254v-112h-254v-183h314v-113zM341 104q24 0 106 7v470q-82 7 -109 7q-91 0 -124 -51t-33 -192q0 -138 31.5 -189.5t128.5 -51.5z" />
<glyph unicode="&#x153;" horiz-adv-x="876" d="M618 93q80 0 184 9l2 -89q-114 -24 -203 -24q-107 0 -156 59q-51 -59 -162 -59q-123 0 -174 66.5t-51 196.5q0 127 52 193t173 66q116 0 167 -68q52 68 159 68t159.5 -56t52.5 -172l-8 -82h-306q1 -56 26.5 -82t84.5 -26zM283 92q63 0 85.5 37.5t22.5 122.5q0 81 -24 118 t-84 37q-61 0 -84.5 -36t-23.5 -119q0 -86 22.5 -123t85.5 -37zM506 290h202q0 65 -22.5 92t-76.5 27t-78.5 -28.5t-24.5 -90.5z" />
<glyph unicode="&#x178;" horiz-adv-x="565" d="M343 295v-295h-118v296l-212 396h131l139 -265l138 265h131zM122 803v118h109v-118h-109zM339 803v118h109v-118h-109z" />
<glyph unicode="&#x2c6;" horiz-adv-x="257" d="M-36 584l129 164h92l130 -164h-123l-52 69l-53 -69h-123z" />
<glyph unicode="&#x2dc;" horiz-adv-x="257" d="M292 740l25 -87q-6 -7 -15.5 -16.5t-36 -26t-48.5 -16.5q-27 0 -81 23t-68 23q-12 0 -31.5 -10t-32.5 -20l-14 -11l-25 86q6 7 16 17t37 26.5t49 16.5q32 0 84 -22.5t63 -22.5t30.5 10t33.5 20z" />
<glyph unicode="&#x2000;" horiz-adv-x="483" />
<glyph unicode="&#x2001;" horiz-adv-x="967" />
<glyph unicode="&#x2002;" horiz-adv-x="483" />
<glyph unicode="&#x2003;" horiz-adv-x="967" />
<glyph unicode="&#x2004;" horiz-adv-x="322" />
<glyph unicode="&#x2005;" horiz-adv-x="241" />
<glyph unicode="&#x2006;" horiz-adv-x="161" />
<glyph unicode="&#x2007;" horiz-adv-x="161" />
<glyph unicode="&#x2008;" horiz-adv-x="120" />
<glyph unicode="&#x2009;" horiz-adv-x="193" />
<glyph unicode="&#x200a;" horiz-adv-x="53" />
<glyph unicode="&#x2010;" horiz-adv-x="440" d="M68 225v112h304v-112h-304z" />
<glyph unicode="&#x2011;" horiz-adv-x="440" d="M68 225v112h304v-112h-304z" />
<glyph unicode="&#x2013;" horiz-adv-x="500" d="M0 325h500v-104h-500v104z" />
<glyph unicode="&#x2014;" horiz-adv-x="1000" d="M0 325h1000v-104h-1000v104z" />
<glyph unicode="&#x2018;" horiz-adv-x="170" d="M154 727l-47 -238h-117l56 238h108z" />
<glyph unicode="&#x2019;" horiz-adv-x="170" d="M15 527l47 238h117l-56 -238h-108z" />
<glyph unicode="&#x201a;" horiz-adv-x="213" d="M171 117l-47 -238h-117l56 238h108z" />
<glyph unicode="&#x201c;" horiz-adv-x="480" d="M372 727l-47 -238h-223l56 238h214z" />
<glyph unicode="&#x201d;" horiz-adv-x="482" d="M84 485l47 238h117l-56 -238h-108zM251 485l47 238h117l-56 -238h-108z" />
<glyph unicode="&#x201e;" horiz-adv-x="432" d="M378 117l-47 -238h-117l56 238h108zM171 117l-47 -238h-117l56 238h108z" />
<glyph unicode="&#x2022;" d="M144 102v282h242v-282h-242z" />
<glyph unicode="&#x2026;" horiz-adv-x="744" d="M65 0v149h123v-149h-123zM319 0v149h124v-149h-124zM574 0v149h123v-149h-123z" />
<glyph unicode="&#x202f;" horiz-adv-x="193" />
<glyph unicode="&#x2039;" horiz-adv-x="372" d="M288 327l-114 -81l114 -92v-116l-211 164v84l211 157v-116z" />
<glyph unicode="&#x203a;" horiz-adv-x="372" d="M198 254l-114 81v116l212 -157v-84l-212 -164v116z" />
<glyph unicode="&#x205f;" horiz-adv-x="241" />
<glyph unicode="&#x20ac;" horiz-adv-x="580" d="M55 455h61q14 118 69.5 168t174.5 50q39 0 83.5 -4.5t69.5 -9.5l25 -5l-4 -104q-99 7 -158 7q-66 0 -96.5 -22.5t-40.5 -80.5h229v-89h-237v-74h237v-90h-228q11 -54 41.5 -75.5t97.5 -21.5l155 8l3 -106q-98 -17 -177 -17q-122 0 -176 49.5t-68 162.5h-61v90h55v74h-55 v90z" />
<glyph unicode="&#x2122;" d="M7 570v69h200v-69h-49v-238h-77v238h-74zM234 331v308h92l50 -174l53 174h92v-308h-72v191l-45 -172h-51l-47 172v-191h-72z" />
<glyph horiz-adv-x="235" />
</font>
</defs>
</svg>
