<?xml version="1.0" standalone="no"?>
<!DOCTYPE svg PUBLIC "-//W3C//DTD SVG 1.1//EN" "http://www.w3.org/Graphics/SVG/1.1/DTD/svg11.dtd" >
<svg xmlns="http://www.w3.org/2000/svg">
<metadata>
This is a custom SVG webfont generated by Font Squirrel.
Designer    : Campivisivi
Foundry     : Campivisivi
</metadata>
<defs>
<font id="webfontgOLrW7Ec" horiz-adv-x="530" >
<font-face units-per-em="1000" ascent="750" descent="-250" />
<missing-glyph horiz-adv-x="235" />
<glyph unicode=" "  horiz-adv-x="235" />
<glyph unicode="&#x09;" horiz-adv-x="235" />
<glyph unicode="&#xa0;" horiz-adv-x="235" />
<glyph unicode="!" d="M220 0v132h102v-132h-102zM223 241l-3 459h102l-3 -459h-96z" />
<glyph unicode="&#x22;" horiz-adv-x="325" d="M285 464h-87l-1 230h91zM128 464h-87l-1 230h91z" />
<glyph unicode="#" d="M523 175h-106v-175h-84v175h-138v-175h-84v175h-105v80h105v154h-105v80h105v175h84v-175h138v175h84v-175h106v-80h-106v-154h106v-80zM333 255v154h-138v-154h138z" />
<glyph unicode="$" d="M474 669l-7 -86q-71 9 -132 14l-27 -213q101 -28 140.5 -66t39.5 -122q0 -105 -59 -155.5t-166 -50.5h-5l-15 -116q-59 3 -59 7l14 113q-68 6 -142 19l10 86q77 -11 144 -15l28 222q-106 26 -150.5 67.5t-44.5 129.5q0 94 60.5 141.5t169.5 47.5h15l14 104h59l-14 -109z M139 505q0 -46 23.5 -67t87.5 -39l26 201h-3q-134 0 -134 -95zM393 193q0 41 -21 62t-76 37l-26 -210q63 2 93 28t30 83z" />
<glyph unicode="%" d="M409 285q117 0 117 -141q0 -143 -117 -143q-118 0 -118 143q0 141 118 141zM89 38l311 659l54 -31l-312 -659zM364 144q0 -43 9.5 -62.5t35.5 -19.5t35 19t9 63q0 43 -9 61.5t-35 18.5t-35.5 -18.5t-9.5 -61.5zM130 701q117 0 117 -140q0 -143 -117 -143q-118 0 -118 143 q0 140 118 140zM85 561q0 -43 9.5 -62.5t35.5 -19.5q25 0 34.5 19.5t9.5 62.5t-9.5 61.5t-34.5 18.5q-26 0 -35.5 -18.5t-9.5 -61.5z" />
<glyph unicode="&#x26;" horiz-adv-x="700" d="M323 706q91 0 137.5 -42.5t46.5 -120.5q0 -68 -33 -110t-113 -87l122 -122q18 57 27 128l92 -2q-15 -109 -46 -186l123 -117l-57 -65l-114 106q-49 -56 -101.5 -80.5t-128.5 -24.5q-116 0 -176 57t-60 162q0 77 38 124.5t111 78.5q-31 39 -41 68.5t-10 76.5 q0 72 48.5 114t134.5 42zM281 71q50 0 86 17.5t70 58.5l-187 192q-111 -42 -111 -136q0 -63 36.5 -97.5t105.5 -34.5zM235 538q0 -62 44 -109l23 -23q60 30 84.5 57t24.5 71q0 84 -88 84t-88 -80z" />
<glyph unicode="'" horiz-adv-x="100" d="M2 459l-2 234h93l-5 -234h-86z" />
<glyph unicode="(" horiz-adv-x="260" d="M122 750h102q-11 -29 -26.5 -77.5t-42 -168t-26.5 -203.5q0 -167 87 -405l8 -21h-102q-11 25 -27 68t-43 156t-27 202t24.5 201t48.5 180z" />
<glyph unicode=")" horiz-adv-x="260" d="M25 750h102q11 -27 27 -72t43 -161.5t27 -205.5t-24 -198t-48 -173l-25 -65h-102q11 28 26.5 74.5t42 162.5t26.5 199q0 84 -24 193.5t-48 177.5z" />
<glyph unicode="*" d="M446 507h-129l40 -124l-57 -17l-41 125l-106 -79l-36 46l107 79l-104 76l35 48l104 -74l41 122l58 -19l-40 -125h128v-58z" />
<glyph unicode="+" horiz-adv-x="482" d="M-10 232v86h206v206h88v-206h208v-86h-208v-208h-88v208h-206z" />
<glyph unicode="," horiz-adv-x="170" d="M15 -123l48 240h103l-57 -240h-94z" />
<glyph unicode="-" horiz-adv-x="440" d="M66 235v92h308v-92h-308z" />
<glyph unicode="." horiz-adv-x="248" d="M66 0v132h103v-132h-103z" />
<glyph unicode="/" d="M77 17l281 696l90 -32l-281 -696z" />
<glyph unicode="0" d="M264 671q124 0 185.5 -79t61.5 -270q0 -181 -62 -257t-185 -76t-184.5 75.5t-61.5 257.5q0 190 61.5 269.5t184.5 79.5zM265 578q-77 0 -110 -55t-33 -202q0 -138 33.5 -188.5t109.5 -50.5t109 51t33 189q0 146 -32.5 201t-109.5 55z" />
<glyph unicode="1" d="M53 519l211 141h91v-660h-97v548l-160 -106z" />
<glyph unicode="2" d="M479 0h-424v89l173 177q52 53 74.5 78.5t42 62t19.5 71.5q0 52 -32 74.5t-100 22.5q-32 0 -73.5 -4.5t-66.5 -9.5l-25 -5l-7 89q100 26 193 26q108 0 159.5 -44t51.5 -137q0 -71 -30 -123t-106 -128l-143 -146h294v-93z" />
<glyph unicode="3" d="M58 647q107 24 195 24q119 0 168.5 -42t49.5 -133q0 -26 -8 -49.5t-14.5 -36t-25.5 -28.5t-21.5 -17.5t-21.5 -14.5q54 -22 80 -55t26 -103q0 -103 -52.5 -153t-165.5 -50q-102 0 -220 24l11 88q109 -18 197 -18q130 1 130 106q0 99 -123 103h-133v89h133q38 0 73 30.5 t35 71.5q0 51 -30 72.5t-93 21.5q-39 0 -84 -4t-70 -8l-26 -4z" />
<glyph unicode="4" d="M335 -6v120h-309v80l181 466h107l-177 -453h198v207h97v-207h76v-93h-76v-120h-97z" />
<glyph unicode="5" d="M76 661h391v-94h-303l-17 -181q73 31 129 31q106 0 160.5 -47.5t54.5 -152.5q0 -110 -58.5 -168.5t-164.5 -58.5q-102 0 -224 29l11 88q123 -24 210 -24q57 0 91.5 34t34.5 95q0 114 -124 114q-32 0 -65.5 -8t-51.5 -16l-18 -7l-77 16z" />
<glyph unicode="6" d="M480 654l-9 -89q-94 13 -178 13q-80 0 -121.5 -50t-41.5 -146l24 8q23 8 61.5 17t66.5 9q224 0 224 -207q0 -107 -61.5 -163.5t-173.5 -56.5q-241 0 -241 342q0 180 68 260t195 80q84 0 187 -17zM275 327q-69 -3 -146 -30q2 -216 142 -216q134 0 134 128q0 118 -130 118z " />
<glyph unicode="7" d="M53 567v94h414v-121l-250 -554l-91 27l241 531v23h-314z" />
<glyph unicode="8" d="M268 671q110 0 175.5 -44.5t65.5 -129.5q0 -60 -21.5 -92t-76.5 -62q55 -31 81.5 -66t26.5 -98q0 -52 -19.5 -90t-54.5 -59t-79 -31t-98 -10q-248 0 -248 179q0 69 25 105.5t79 69.5q-50 30 -71.5 64t-21.5 91q0 84 63.5 128.5t173.5 44.5zM268 82q147 0 147 109 q0 43 -25 66.5t-73 38.5h-100q-92 -28 -92 -108q0 -106 143 -106zM269 578q-66 0 -100 -22t-34 -72q0 -38 20 -61.5t62 -40.5h100q44 17 65.5 41t21.5 61q0 50 -34 72t-101 22z" />
<glyph unicode="9" d="M52 7l9 87q94 -13 178 -13q163 0 165 195l-24 -8q-25 -7 -64.5 -15t-67.5 -8q-220 0 -220 206q0 104 63 162t170 58q243 0 243 -341q0 -185 -67 -263t-198 -78q-37 0 -84 4.5t-75 8.5zM256 334q28 0 65.5 7.5t60.5 14.5l23 8q-2 99 -37 157.5t-107 58.5q-61 0 -97 -34.5 t-36 -94.5q0 -117 128 -117z" />
<glyph unicode=":" horiz-adv-x="194" d="M52 311v132h102v-132h-102zM52 0v132h102v-132h-102z" />
<glyph unicode=";" horiz-adv-x="213" d="M17 -117l54 246h103l-69 -246h-88zM64 311v132h102v-132h-102z" />
<glyph unicode="&#x3c;" d="M410 459l-255 -148l255 -155v-100q-38 20 -174.5 102t-172.5 102v98l347 201v-100z" />
<glyph unicode="=" d="M29 337v87h463v-87h-463zM29 139v87h463v-87h-463z" />
<glyph unicode="&#x3e;" d="M318 311l-255 148v100l347 -201v-98q-36 -20 -172.5 -102t-174.5 -102v100z" />
<glyph unicode="?" horiz-adv-x="386" d="M391 530q0 -48 -19 -88t-46.5 -65t-55 -46.5t-46.5 -44.5t-19 -46v-38h-100v41q0 36 19 66.5t46 52.5l53 44q27 22 46 50.5t19 62.5q0 52 -25 73.5t-91 21.5q-49 0 -153 -22l-12 92q115 28 169 28q112 0 163.5 -41.5t51.5 -140.5zM104 0v132h102v-132h-102z" />
<glyph unicode="@" horiz-adv-x="985" d="M937 305v-17q0 -91 -12 -150.5t-37 -91.5t-56 -44t-76 -12q-46 0 -74.5 11t-46.5 40q-97 -50 -167 -50q-40 0 -70 10.5t-56 37t-40 77.5t-14 126q0 134 43.5 200.5t155.5 66.5q40 0 109 -24v15h94v-200q0 -104 6 -149.5t18.5 -58t41.5 -12.5q31 0 47.5 12.5t27 59 t10.5 136.5v18q0 175 -78.5 251.5t-258.5 76.5q-182 0 -271 -90t-89 -283q0 -206 83 -290.5t277 -84.5l143 10l4 -91q-99 -10 -147 -10q-116 0 -197 22.5t-141 75t-89 143.5t-29 225q0 464 456 464q222 0 327.5 -104.5t105.5 -315.5zM475 83q54 0 129 33q-8 48 -8 148v139 q-56 17 -91 17q-72 0 -96.5 -39.5t-24.5 -139.5q0 -91 24.5 -124.5t66.5 -33.5z" />
<glyph unicode="A" horiz-adv-x="605" d="M26 0l178 694h199l176 -693h-98l-45 155h-270l-43 -156h-97zM278 604l-91 -355h229l-89 355h-49z" />
<glyph unicode="B" horiz-adv-x="614" d="M83 694h255q208 0 208 -173q0 -68 -20 -105t-64 -60q51 -19 77 -55.5t26 -105.5q0 -195 -217 -195h-265v694zM341 306h-162v-216h165q59 0 90 26t31 86q0 104 -124 104zM334 604h-155v-210h160q108 0 108 112q0 52 -27.5 75t-85.5 23z" />
<glyph unicode="C" horiz-adv-x="535" d="M493 101l3 -88q-114 -24 -193 -24q-77 0 -128 22t-78.5 70t-38.5 110t-11 155q0 190 55 274.5t201 84.5q40 0 88 -6.5t77 -12.5l28 -6l-3 -87q-113 17 -178 17q-100 0 -133.5 -58.5t-33.5 -205.5q0 -146 33 -204t136 -58q59 0 176 17z" />
<glyph unicode="D" horiz-adv-x="637" d="M323 0h-240v694h240q151 0 209 -83.5t58 -251.5q0 -85 -11.5 -146t-40 -111.5t-82.5 -76t-133 -25.5zM490 359q0 121 -34.5 182t-132.5 61h-144v-510h144q51 0 85.5 20.5t51.5 59.5t23.5 83t6.5 104z" />
<glyph unicode="E" horiz-adv-x="561" d="M83 0v694h427v-93h-331v-208h271v-91h-271v-209h331v-93h-427z" />
<glyph unicode="F" horiz-adv-x="548" d="M83 0v694h427v-93h-331v-246h271v-92h-271v-263h-96z" />
<glyph unicode="G" horiz-adv-x="604" d="M354 271v87h193v-345q-142 -24 -227 -24q-152 0 -212 88.5t-60 269.5q0 185 60 271.5t209 86.5q47 0 104.5 -7t91.5 -14l34 -7l-4 -85q-122 18 -213 18q-106 0 -144 -59t-38 -204t36 -204.5t143 -59.5q15 0 33 1t33 2.5t28 3.5t21 3t9 1v177h-97z" />
<glyph unicode="H" horiz-adv-x="680" d="M499 0v305h-319v-305h-97v694h97v-296h319v296h98v-694h-98z" />
<glyph unicode="I" horiz-adv-x="257" d="M80 0v694h97v-694h-97z" />
<glyph unicode="J" horiz-adv-x="310" d="M229 694q0 -106 0.5 -291t0.5 -292q0 -59 -11 -95.5t-37.5 -55.5t-60 -25t-89.5 -6v90q60 0 80 17.5t20 82.5v575h97z" />
<glyph unicode="K" horiz-adv-x="595" d="M449 0l-161 294l-108 -6v-288h-97v694h97v-312l106 6l155 306h113l-181 -347l190 -347h-114z" />
<glyph unicode="L" horiz-adv-x="504" d="M466 0h-383v694h97v-601h286v-93z" />
<glyph unicode="M" horiz-adv-x="849" d="M83 0v694h163l179 -556l180 556h161v-694h-97v576h-15l-178 -550h-103l-178 550h-15v-576h-97z" />
<glyph unicode="N" horiz-adv-x="695" d="M83 0v694h164l248 -576h20v576h97v-694h-160l-252 576h-20v-576h-97z" />
<glyph unicode="O" horiz-adv-x="649" d="M324 83q104 0 140 59.5t36 200.5q0 139 -37 203.5t-139 64.5t-139 -64.5t-37 -203.5t36.5 -199.5t139.5 -60.5zM324 -11q-154 0 -215 85.5t-61 268.5t61.5 272.5t214.5 89.5q154 0 215.5 -89.5t61.5 -272.5q0 -185 -60.5 -269.5t-216.5 -84.5z" />
<glyph unicode="P" horiz-adv-x="601" d="M335 221h-155v-221h-97v694h252q228 0 228 -229q0 -118 -57 -181t-171 -63zM180 314h155q129 0 129 151q0 70 -31 103t-98 33h-155v-287z" />
<glyph unicode="Q" horiz-adv-x="649" d="M484 -149l-89 145q-37 -7 -71 -7q-154 0 -215 85.5t-61 268.5t61.5 272.5t214.5 89.5q154 0 215.5 -89.5t61.5 -272.5q0 -123 -25.5 -199.5t-84.5 -114.5l83 -136zM324 83q104 0 140 59.5t36 200.5q0 139 -37 203.5t-139 64.5t-139 -64.5t-37 -203.5t36.5 -199.5 t139.5 -60.5z" />
<glyph unicode="R" horiz-adv-x="620" d="M466 0l-111 250h-175v-250h-97v694h259q116 0 171.5 -52t55.5 -165q0 -154 -118 -201l122 -276h-107zM469 475q0 127 -127 127h-162v-260h163q126 0 126 133z" />
<glyph unicode="S" horiz-adv-x="532" d="M479 683l-8 -88q-140 17 -198 17q-136 0 -136 -97q0 -53 32 -74.5t127 -44.5q111 -29 154 -68.5t43 -127.5q0 -107 -60.5 -158.5t-169.5 -51.5q-33 0 -86 6t-89 12l-36 5l10 88q129 -17 200 -17q69 0 101.5 26.5t32.5 86.5q0 48 -30 70.5t-113 41.5q-117 27 -165.5 69.5 t-48.5 134.5q0 96 61.5 144.5t172.5 48.5q77 0 206 -23z" />
<glyph unicode="T" horiz-adv-x="488" d="M-6 601v93h500v-93h-200v-601h-98v601h-202z" />
<glyph unicode="U" horiz-adv-x="640" d="M169 216q0 -71 38.5 -100.5t110.5 -29.5q74 0 113 30t39 100v478h98v-478q0 -119 -62.5 -172t-187.5 -53q-122 0 -184 53.5t-62 171.5v478h97v-478z" />
<glyph unicode="V" horiz-adv-x="599" d="M472 694h101l-173 -694h-200l-174 694h101l148 -601h50z" />
<glyph unicode="W" horiz-adv-x="913" d="M32 694h101l120 -595h24l125 591h110l126 -591h24l118 595h101l-150 -694h-161l-114 549l-110 -549h-162z" />
<glyph unicode="X" horiz-adv-x="581" d="M134 694l157 -275l156 275h109l-199 -350l199 -344h-109l-156 271l-157 -271h-109l202 344l-202 350h109z" />
<glyph unicode="Y" horiz-adv-x="559" d="M329 297v-297h-97v297l-216 397h108l156 -288l154 288h109z" />
<glyph unicode="Z" horiz-adv-x="570" d="M60 601v93h450v-108l-329 -475v-18h329v-93h-450v107l329 475v19h-329z" />
<glyph unicode="[" horiz-adv-x="300" d="M261 749v-92h-128v-688h128v-92h-224l-1 872h225z" />
<glyph unicode="\" horiz-adv-x="541" d="M473 22l-103 -44l-311 695l104 46z" />
<glyph unicode="]" horiz-adv-x="300" d="M36 657v92h225l-1 -872h-224v92h128v688h-128z" />
<glyph unicode="^" d="M392 321l-128 245l-128 -245h-100l177 339h99l181 -339h-101z" />
<glyph unicode="_" horiz-adv-x="520" d="M27 -5h428v-86h-428v86z" />
<glyph unicode="`" horiz-adv-x="247" d="M24 758l231 -94l-28 -74l-234 84z" />
<glyph unicode="a" horiz-adv-x="524" d="M441 345v-226q1 -24 13 -34.5t36 -13.5l-3 -81q-51 0 -78 8t-49 28q-87 -37 -174 -37q-67 0 -103.5 41t-36.5 116q0 74 39 108.5t121 41.5l140 12v36q0 76 -74 76q-33 0 -81 -3t-79 -6l-32 -3l-4 82q125 20 201 20q82 0 123 -39t41 -126zM346 234l-129 -10 q-75 -6 -75 -76q0 -77 61 -77q64 0 143 25v138z" />
<glyph unicode="b" horiz-adv-x="543" d="M309 510q102 0 145.5 -57.5t43.5 -195.5q0 -152 -52.5 -210t-188.5 -58q-56 0 -176 12v711h94v-232q72 30 134 30zM257 75q88 0 116 40t28 142q0 90 -23.5 128t-79.5 38q-25 0 -55.5 -5.5t-48.5 -10.5l-19 -5v-322q59 -5 82 -5z" />
<glyph unicode="c" horiz-adv-x="436" d="M254 510q22 0 58 -4t61 -8l25 -4l-4 -82q-79 9 -117 9q-80 0 -108 -35.5t-28 -128.5q0 -103 26.5 -140.5t110.5 -37.5l117 8l3 -82q-97 -16 -146 -16q-116 0 -161.5 60.5t-45.5 207.5q0 136 48.5 194.5t160.5 58.5z" />
<glyph unicode="d" horiz-adv-x="546" d="M465 700v-700h-94v29q-74 -39 -141 -39q-93 0 -139 58t-46 202q0 135 49.5 197.5t158.5 62.5q18 0 44.5 -2.5t50.5 -5.5l23 -4v202h94zM243 77q58 1 128 29v309q-1 0 -22.5 3t-46 5t-43.5 2q-64 0 -91 -42t-27 -134q0 -98 26 -134.5t76 -37.5z" />
<glyph unicode="e" horiz-adv-x="507" d="M262 76q77 0 184 9l2 -75q-114 -21 -199 -21q-110 1 -157 62.5t-47 194.5q0 264 213 264q105 0 156 -56t51 -175l-6 -69h-318q0 -69 28 -101.5t93 -32.5zM140 284h231q0 77 -26 109.5t-87 32.5q-59 0 -88 -33.5t-30 -108.5z" />
<glyph unicode="f" horiz-adv-x="337" d="M179 414v-414h-95v414h-60v85h60v39q0 106 30.5 145t108.5 39l105 -9l-1 -78q-52 2 -83 2q-38 0 -51.5 -21t-13.5 -79v-38h137v-85h-137z" />
<glyph unicode="g" horiz-adv-x="524" d="M267 -240q-120 0 -172 33t-52 120q0 39 18 66t59 58q-31 20 -31 71q0 9 9 29t18 35l9 15q-76 40 -76 150q0 89 52.5 131t142.5 42q48 0 103 -13l148 3v-78h-81q26 -31 26 -85q0 -97 -47.5 -134t-151.5 -37q-26 0 -46 4q-15 -39 -15 -52q0 -27 18.5 -34t94.5 -7 q115 0 158 -30.5t43 -117.5q0 -169 -227 -169zM285 -5l-102 5q-26 -20 -36 -36.5t-10 -41.5q0 -42 28.5 -59.5t102.5 -17.5q67 0 98.5 18.5t31.5 60.5q0 45 -22.5 57.5t-90.5 13.5zM241 246q57 0 81 20t24 71q0 53 -23 72.5t-80 19.5q-52 0 -75.5 -21t-23.5 -71 q0 -48 22 -69.5t75 -21.5z" />
<glyph unicode="h" horiz-adv-x="563" d="M175 0h-94v720h94v-241q81 31 144 31q100 0 135.5 -56.5t35.5 -192.5v-261h-94v260q0 91 -18 126.5t-76 35.5q-55 0 -127 -23v-399z" />
<glyph unicode="i" horiz-adv-x="247" d="M76 0v499h95v-499h-95zM76 596v105h95v-105h-95z" />
<glyph unicode="j" horiz-adv-x="256" d="M85 6v493h95v-494q0 -95 -34 -142t-137 -99l-41 79q74 42 95.5 71t21.5 92zM85 602v104h95v-104h-95z" />
<glyph unicode="k" horiz-adv-x="504" d="M175 0h-94v712h94v-410l68 6l132 191h107l-154 -232l158 -267h-107l-134 216l-70 -6v-210z" />
<glyph unicode="l" horiz-adv-x="251" d="M78 0v712h95v-712h-95z" />
<glyph unicode="m" horiz-adv-x="858" d="M175 0h-94v499h93v-30q51 29 107 36q21 4 39 4q7 0 14 -1q67 -3 102 -42q113 44 178 44q100 0 135.5 -55t35.5 -194v-261h-94v227q0 117 -16 156t-78 39q-26 0 -57 -7.5t-48.5 -14.5t-19.5 -9q10 -25 10 -132v-259h-94v257q0 96 -17.5 130.5t-76.5 34.5q-55 0 -119 -30 v-392z" />
<glyph unicode="n" horiz-adv-x="566" d="M175 0h-94v499h94v-29q82 40 144 40q101 0 136.5 -56.5t35.5 -192.5v-261h-95v260q0 91 -18 126.5t-75 35.5q-56 0 -128 -30v-392z" />
<glyph unicode="o" horiz-adv-x="528" d="M265 510q115 0 166.5 -64t51.5 -192q0 -134 -48 -199.5t-170 -65.5q-123 0 -171.5 64.5t-48.5 200.5q0 130 50.5 193t169.5 63zM265 75q73 0 97.5 41.5t24.5 137.5q0 90 -28 130.5t-94 40.5q-71 0 -97.5 -38.5t-26.5 -132.5q0 -98 25 -138.5t99 -40.5z" />
<glyph unicode="p" horiz-adv-x="544" d="M81 -218v717h94v-30q71 41 137 41q97 0 142 -59.5t45 -195.5q0 -148 -51.5 -207t-169.5 -59q-54 0 -103 11v-218h-94zM296 424q-24 0 -54 -8t-48 -16l-19 -9v-308q72 -8 97 -8q73 0 101.5 40.5t28.5 140.5q0 90 -26.5 129t-79.5 39z" />
<glyph unicode="q" horiz-adv-x="537" d="M254 -11q-111 0 -160 64t-49 189q0 134 52 201t176 67l183 -11v-718h-94v231q-45 -23 -108 -23zM273 425q-74 0 -103.5 -43.5t-29.5 -138.5q0 -84 27 -126t87 -42q55 0 108 26v320q-60 4 -89 4z" />
<glyph unicode="r" horiz-adv-x="358" d="M81 0v499h94v-59q71 53 163 71v-100q-92 -18 -163 -61v-350h-94z" />
<glyph unicode="s" horiz-adv-x="491" d="M422 489l-2 -80q-115 16 -177 16q-48 0 -72 -14.5t-24 -49.5q0 -28 22.5 -40.5t91.5 -23.5q101 -16 139 -46.5t38 -102.5q0 -84 -50.5 -121.5t-146.5 -37.5q-30 0 -75 5.5t-76 10.5l-30 5l4 81q118 -16 169 -16q59 0 84.5 15.5t25.5 54.5q0 31 -21 43t-89 23 q-101 17 -141 46t-40 102q0 78 52.5 114.5t132.5 36.5q33 0 79 -5t76 -11z" />
<glyph unicode="t" horiz-adv-x="359" d="M331 414h-147v-218q0 -72 10.5 -95t51.5 -23l85 5l5 -82q-67 -12 -102 -12q-82 0 -113 39t-31 146v240h-67v85h67v150h94v-150h147v-85z" />
<glyph unicode="u" horiz-adv-x="559" d="M384 499h95v-499h-95v29q-78 -40 -140 -40q-103 0 -137 54.5t-34 195.5v260h95v-259q0 -98 16.5 -131.5t76.5 -33.5q25 0 55.5 7.5t49.5 15.5l18 7v394z" />
<glyph unicode="v" horiz-adv-x="482" d="M19 499h98l108 -420h33l109 420h97l-135 -499h-176z" />
<glyph unicode="w" horiz-adv-x="754" d="M22 499h94l88 -414h19l104 405h100l104 -405h19l88 414h94l-111 -499h-156l-89 363l-89 -363h-155z" />
<glyph unicode="x" horiz-adv-x="463" d="M21 499h102l108 -181l109 181h101l-149 -250l149 -249h-102l-108 181l-108 -181h-102l149 249z" />
<glyph unicode="y" horiz-adv-x="483" d="M19 499h94l113 -408h30l114 408h94l-196 -716h-94l59 217h-78z" />
<glyph unicode="z" horiz-adv-x="479" d="M54 415v85h371v-85l-257 -330h257v-85h-371v85l257 330h-257z" />
<glyph unicode="{" horiz-adv-x="317" d="M213 171q0 -16 -3.5 -57.5t-3.5 -59.5q0 -47 20.5 -67.5t79.5 -24.5l-1 -92q-106 4 -153 44.5t-47 129.5q0 21 3.5 66t3.5 56q0 41 -21.5 65.5t-76.5 40.5v80q56 14 77 37.5t21 64.5q0 13 -3.5 60t-3.5 67q0 92 46.5 132t153.5 44l1 -92q-59 -4 -79.5 -23.5t-20.5 -66.5 q0 -17 3.5 -63.5t3.5 -60.5q0 -61 -22 -90.5t-78 -47.5q55 -18 77.5 -50t22.5 -92z" />
<glyph unicode="|" d="M211 -162v892h97v-892h-97z" />
<glyph unicode="}" horiz-adv-x="317" d="M107 171q0 60 22.5 92t77.5 50q-56 18 -78 47.5t-22 90.5q0 14 3.5 60.5t3.5 63.5q0 47 -20 66.5t-80 23.5l1 92q107 -4 153.5 -44t46.5 -132q0 -20 -3.5 -67t-3.5 -60q0 -41 21 -64.5t77 -37.5v-80q-55 -16 -76.5 -40.5t-21.5 -65.5q0 -11 3.5 -56t3.5 -66 q0 -89 -47 -129.5t-153 -44.5l-1 92q60 4 80 24.5t20 67.5q0 20 -3.5 62t-3.5 55z" />
<glyph unicode="~" d="M460 381l8 -90q-6 -6 -16 -15t-38.5 -23.5t-55.5 -14.5q-30 0 -97 24t-87 24q-43 0 -103 -45l-9 90q6 6 17 15t41.5 23.5t58.5 14.5q29 0 95 -24t88 -24q38 0 98 45z" />
<glyph unicode="&#xa1;" d="M322 499v-132h-102v132h102zM319 258l3 -459h-102l3 459h96z" />
<glyph unicode="&#xa2;" horiz-adv-x="437" d="M210 -79v113q-92 5 -135.5 54t-43.5 161q0 206 179 217v113h81v-116l92 -10l-3 -83q-87 6 -125 6q-71 0 -99 -27.5t-28 -99.5q0 -73 27.5 -99t103.5 -26l122 6l3 -83q-52 -7 -93 -10v-116h-81z" />
<glyph unicode="&#xa3;" d="M449 666v-81q-82 10 -127 10q-41 0 -56.5 -23.5t-15.5 -88.5v-59h165v-83h-165v-258h144l75 16l15 -81l-81 -17l-327 -1v83h81v258h-66v83h66v64q0 110 42 151t121 41q50 0 129 -14z" />
<glyph unicode="&#xa4;" d="M431 21l-72 71q-43 -26 -94 -26t-95 26l-71 -71l-65 65l71 71q-25 43 -25 94t25 95l-71 72l65 65l71 -72q44 26 95 26t94 -26l72 72l65 -65l-72 -72q26 -44 26 -95t-26 -94l72 -71zM195 182q29 -28 70 -28t70 28t29 70t-29 70t-70 28t-70 -28t-29 -70t29 -70z" />
<glyph unicode="&#xa5;" horiz-adv-x="540" d="M48 307v81h123l-164 272h108l156 -250l154 250h109l-163 -272h121v-81h-167l-5 -19v-48h172v-81h-172v-159h-97v159h-175v81h175v48l-5 19h-170z" />
<glyph unicode="&#xa6;" d="M210 750h97v-396h-97v396zM210 232h97v-394h-97v394z" />
<glyph unicode="&#xa7;" d="M446 627l-4 -77q-110 14 -158 14q-62 0 -88 -19t-26 -64q0 -39 29.5 -55t111.5 -33q88 -18 122.5 -47t34.5 -99q0 -36 -14.5 -74t-30.5 -61q37 -31 37 -102q0 -90 -48.5 -131.5t-150.5 -41.5q-29 0 -74 4.5t-75 9.5l-30 5l9 77q109 -14 164 -14q114 0 114 84 q0 40 -27.5 54t-115.5 33q-89 18 -126.5 49.5t-37.5 101.5q0 37 20.5 75t39.5 53q-44 33 -44 111q0 167 200 167q68 0 168 -20zM269 316q-73 16 -84 21q-7 -10 -17.5 -34.5t-10.5 -45.5q0 -39 20.5 -55.5t74.5 -26.5q64 -14 98 -28q6 8 14.5 35t8.5 52q0 38 -22.5 54 t-81.5 28z" />
<glyph unicode="&#xa8;" horiz-adv-x="247" d="M-18 619v104h91v-104h-91zM188 619v104h90v-104h-90z" />
<glyph unicode="&#xa9;" d="M9 433q0 113 73 190.5t183 77.5q112 0 184 -78t72 -189q0 -113 -72 -189.5t-185 -76.5q-108 0 -181.5 77t-73.5 188zM60 434q0 -90 58 -152t146 -62q89 0 148 62t59 152t-59 153t-147 63q-87 0 -146 -63t-59 -153zM341 362v-74q-32 -8 -74 -8q-67 0 -95 37.5t-28 119.5 q0 76 28.5 113.5t94.5 37.5q20 0 38.5 -1.5t27.5 -2.5l9 -2l-1 -77q-33 7 -74 7q-48 0 -48 -75q0 -81 48 -81z" />
<glyph unicode="&#xaa;" horiz-adv-x="518" d="M346 571v-134q6 -20 37 -23l-2 -28q-32 1 -54 22q-63 -22 -119 -22q-31 0 -50.5 22t-19.5 58q0 70 75 76l102 7v23q0 32 -12 43.5t-40 11.5l-104 -7l-2 31q69 8 106 8q43 0 63 -20.5t20 -67.5zM315 520l-97 -6q-25 -2 -36 -13.5t-11 -36.5q0 -46 40 -46q20 0 46 4t42 8 l16 5v85z" />
<glyph unicode="&#xab;" horiz-adv-x="614" d="M291 335l-120 -87l120 -98v-98l-201 158v72l201 150v-97zM543 335l-119 -87l119 -98v-98l-200 158v72l200 150v-97z" />
<glyph unicode="&#xac;" d="M56 354h417v-247h-92v155h-325v92z" />
<glyph unicode="&#xad;" horiz-adv-x="440" d="M66 235v92h308v-92h-308z" />
<glyph unicode="&#xae;" d="M-2 434q0 117 73.5 197t193.5 80t195.5 -80t75.5 -197q0 -115 -76 -196t-195 -81q-120 0 -193.5 80t-73.5 197zM48 434q0 -94 63 -161t154 -67t154.5 67t63.5 161q0 95 -63.5 161.5t-154.5 66.5q-92 0 -154.5 -66t-62.5 -162zM312 276l-45 113h-47v-113h-71v315h112 q61 0 91 -22.5t30 -74.5q0 -38 -10.5 -60t-36.5 -36l53 -122h-76zM219 535v-91h49q45 0 45 46q0 45 -53 45h-41z" />
<glyph unicode="&#xaf;" horiz-adv-x="247" d="M-23 630v82h303v-82h-303z" />
<glyph unicode="&#xb0;" d="M100 564q0 64 40 104t104 40t104 -40t40 -104t-39.5 -103.5t-104.5 -39.5t-104.5 39.5t-39.5 103.5zM158 564q0 -39 23.5 -63t62.5 -24t63.5 24t24.5 63t-24.5 63.5t-63.5 24.5t-62.5 -24.5t-23.5 -63.5z" />
<glyph unicode="&#xb1;" d="M32 312v87h190v126h88v-126h194v-87h-194v-124h-88v124h-190zM32 137h472v-87h-472v87z" />
<glyph unicode="&#xb2;" horiz-adv-x="265" d="M236 478h-216v68l83 77q49 43 49 73q0 29 -45 29l-82 -8l-3 73q64 10 108 10q55 0 79 -22t24 -72q0 -33 -14 -57t-45 -51l-53 -49h115v-71z" />
<glyph unicode="&#xb3;" horiz-adv-x="265" d="M28 790q62 10 104 10q111 0 111 -85q0 -53 -37 -73q23 -8 33.5 -24.5t10.5 -51.5q0 -98 -111 -98q-49 0 -115 9l4 69q59 -8 98 -8q43 0 43 33t-40 33h-65v65h64q13 0 23 9.5t10 23.5q0 28 -40 28l-89 -7z" />
<glyph unicode="&#xb4;" horiz-adv-x="268" d="M15 665l231 93l33 -88l-234 -84z" />
<glyph unicode="&#xb5;" d="M69 -232v732h94v-276q1 -88 18.5 -118.5t75.5 -30.5q24 0 55 7.5t50 15.5l18 7v394h95v-499h-95v29q-78 -40 -140 -40q-50 0 -77 22v-243h-94z" />
<glyph unicode="&#x3bc;" d="M69 -232v732h94v-276q1 -88 18.5 -118.5t75.5 -30.5q24 0 55 7.5t50 15.5l18 7v394h95v-499h-95v29q-78 -40 -140 -40q-50 0 -77 22v-243h-94z" />
<glyph unicode="&#xb6;" d="M382 0v625h-98v-625h-83v324h-7q-82 0 -134 52t-52 135t52.5 136t134.5 53h330v-75h-60v-625h-83z" />
<glyph unicode="&#xb7;" horiz-adv-x="248" d="M66 232v132h103v-132h-103z" />
<glyph unicode="&#xb8;" horiz-adv-x="833" d="M564 -127q0 -98 -99 -98q-19 0 -41 2t-34 4l-13 2l3 58q36 -2 60 -2q42 0 42 34q0 30 -42 30h-36v98h45v-46q61 -1 88 -17.5t27 -64.5z" />
<glyph unicode="&#xb9;" horiz-adv-x="265" d="M25 718l103 72h72v-312h-78v226l-61 -41z" />
<glyph unicode="&#xba;" horiz-adv-x="526" d="M259 659q58 0 85.5 -32.5t27.5 -102.5q0 -138 -113 -138q-115 0 -115 138q0 135 115 135zM259 418q43 0 61 24.5t18 81.5t-18 80t-61 23t-62 -23.5t-19 -79.5q0 -57 19 -81.5t62 -24.5z" />
<glyph unicode="&#xbb;" horiz-adv-x="614" d="M443 248l-120 87v97l201 -150v-72l-201 -158v98zM190 248l-119 87v97l200 -150v-72l-200 -158v98z" />
<glyph unicode="&#xbf;" horiz-adv-x="386" d="M7 -31q0 48 19 88t46.5 65t55 46.5t46.5 44.5t19 46v38h100v-41q0 -36 -19 -66.5t-46 -52.5l-54 -44q-26 -22 -45 -50.5t-19 -62.5q0 -52 25 -73.5t91 -21.5q49 0 153 22l12 -92q-115 -28 -169 -28q-112 0 -163.5 41.5t-51.5 140.5zM294 499v-132h-102v132h102z" />
<glyph unicode="&#xc0;" horiz-adv-x="604" d="M28 0l178 694h199l176 -693h-98l-45 155h-270l-43 -156h-97zM280 604l-91 -355h229l-89 355h-49zM188 942l231 -94l-30 -78l-233 83z" />
<glyph unicode="&#xc1;" horiz-adv-x="604" d="M28 0l178 694h199l176 -693h-98l-45 155h-270l-43 -156h-97zM280 604l-91 -355h229l-89 355h-49zM173 865l231 93l33 -88l-234 -84z" />
<glyph unicode="&#xc2;" horiz-adv-x="604" d="M28 0l178 694h199l176 -693h-98l-45 155h-270l-43 -156h-97zM280 604l-91 -355h229l-89 355h-49zM137 788l127 156h76l128 -156h-103l-62 77l-63 -77h-103z" />
<glyph unicode="&#xc3;" horiz-adv-x="604" d="M28 0l178 694h200l175 -693h-97l-46 155h-270l-42 -156h-98zM280 604l-91 -355h230l-90 355h-49zM446 931l21 -73q-5 -6 -14.5 -15t-34 -24.5t-44.5 -15.5q-26 0 -80 24t-69 24q-11 0 -30 -10.5t-33 -20.5l-13 -11l-21 72l16 15q10 10 35.5 26t45.5 16q29 0 82 -23.5 t65 -23.5q23 0 74 40z" />
<glyph unicode="&#xc4;" horiz-adv-x="604" d="M28 0l178 694h200l175 -693h-97l-46 155h-270l-42 -156h-98zM280 604l-91 -355h230l-90 355h-49zM174 819v104h91v-104h-91zM380 819v104h91v-104h-91z" />
<glyph unicode="&#xc5;" horiz-adv-x="604" d="M434 736q0 -40 -23 -68l170 -667h-98l-45 155h-270l-43 -156h-97l171 668q-22 28 -22 68q0 53 36 83t92 30t92.5 -30.5t36.5 -82.5zM280 604l-91 -355h229l-89 355h-49zM252 736q0 -34 35 -42h37q35 8 35 42q0 21 -14.5 33t-39.5 12t-39 -12t-14 -33z" />
<glyph unicode="&#xc6;" horiz-adv-x="898" d="M428 0v156h-238l-48 -156h-99l211 694h601v-93h-331v-201h271v-92h-271v-215h331v-93h-427zM323 601l-108 -352h213l1 352h-106z" />
<glyph unicode="&#xc7;" horiz-adv-x="537" d="M427 -127q0 -98 -99 -98q-19 0 -41 2t-35 4l-12 2l3 58q36 -2 60 -2q42 0 42 34q0 30 -42 30h-36v88q-127 9 -173.5 94t-46.5 261q0 190 55 274.5t201 84.5q40 0 88 -6.5t77 -12.5l28 -6l-3 -87q-113 17 -178 17q-100 0 -133.5 -58.5t-33.5 -205.5q0 -146 33 -204 t136 -58q59 0 176 17l3 -88q-106 -22 -184 -24v-34q61 -1 88 -17.5t27 -64.5z" />
<glyph unicode="&#xc8;" horiz-adv-x="561" d="M83 0v694h427v-93h-331v-208h271v-91h-271v-209h331v-93h-427zM194 942l231 -94l-30 -78l-233 83z" />
<glyph unicode="&#xc9;" horiz-adv-x="572" d="M86 0v694h427v-93h-331v-208h271v-91h-271v-209h331v-93h-427zM177 865l231 93l33 -88l-234 -84z" />
<glyph unicode="&#xca;" horiz-adv-x="572" d="M86 0v694h427v-93h-331v-208h271v-91h-271v-209h331v-93h-427zM143 788l127 156h76l128 -156h-103l-62 77l-63 -77h-103z" />
<glyph unicode="&#xcb;" horiz-adv-x="572" d="M86 0v694h427v-93h-331v-208h271v-91h-271v-209h331v-93h-427zM159 819v104h91v-104h-91zM365 819v104h90v-104h-90z" />
<glyph unicode="&#xcc;" horiz-adv-x="257" d="M80 0v694h97v-694h-97zM4 942l231 -94l-30 -78l-233 83z" />
<glyph unicode="&#xcd;" horiz-adv-x="257" d="M80 0v694h97v-694h-97zM5 855l231 93l33 -88l-234 -84z" />
<glyph unicode="&#xce;" horiz-adv-x="257" d="M80 0v694h97v-694h-97zM-46 795l132 139h86l132 -139h-108l-66 64l-66 -64h-110z" />
<glyph unicode="&#xcf;" horiz-adv-x="257" d="M80 0v694h97v-694h-97zM-21 812v104h90v-104h-90zM190 812v104h91v-104h-91z" />
<glyph unicode="&#xd0;" horiz-adv-x="637" d="M20 297v93h63v304h240q151 0 209 -83.5t58 -251.5q0 -85 -11.5 -146t-40 -111.5t-82.5 -76t-133 -25.5h-240v297h-63zM490 359q0 121 -34.5 182t-132.5 61h-144v-212h145v-93h-145v-205h144q51 0 85.5 20.5t51.5 59.5t23.5 83t6.5 104z" />
<glyph unicode="&#xd1;" horiz-adv-x="687" d="M77 0v694h164l248 -576h19v576h98v-694h-160l-253 576h-19v-576h-97zM485 931l21 -73q-5 -6 -14.5 -15t-34.5 -24.5t-45 -15.5q-25 0 -79 24t-69 24q-11 0 -30 -10.5t-32 -20.5l-14 -11l-21 72l16 15q10 10 35.5 26t45.5 16q29 0 82 -23.5t65 -23.5q22 0 74 40z" />
<glyph unicode="&#xd2;" horiz-adv-x="656" d="M328 83q104 0 140 59.5t36 200.5q0 139 -37 203.5t-139 64.5t-139 -64.5t-37 -203.5t36.5 -199.5t139.5 -60.5zM328 -11q-154 0 -215 85.5t-61 268.5t61.5 272.5t214.5 89.5q154 0 215.5 -89.5t61.5 -272.5q0 -185 -60.5 -269.5t-216.5 -84.5zM218 942l231 -94l-30 -78 l-233 83z" />
<glyph unicode="&#xd3;" horiz-adv-x="656" d="M328 83q104 0 140 59.5t36 200.5q0 139 -37 203.5t-139 64.5t-139 -64.5t-37 -203.5t36.5 -199.5t139.5 -60.5zM328 -11q-154 0 -215 85.5t-61 268.5t61.5 272.5t214.5 89.5q154 0 215.5 -89.5t61.5 -272.5q0 -185 -60.5 -269.5t-216.5 -84.5zM187 865l231 93l33 -88 l-234 -84z" />
<glyph unicode="&#xd4;" horiz-adv-x="656" d="M328 83q104 0 140 59.5t36 200.5q0 139 -37 203.5t-139 64.5t-139 -64.5t-37 -203.5t36.5 -199.5t139.5 -60.5zM328 -11q-154 0 -215 85.5t-61 268.5t61.5 272.5t214.5 89.5q154 0 215.5 -89.5t61.5 -272.5q0 -185 -60.5 -269.5t-216.5 -84.5zM161 788l127 156h76 l128 -156h-103l-62 77l-63 -77h-103z" />
<glyph unicode="&#xd5;" horiz-adv-x="656" d="M328 83q104 0 140 59.5t36 200.5q0 138 -37.5 203t-138.5 65q-102 0 -139 -64.5t-37 -203.5t36.5 -199.5t139.5 -60.5zM328 -11q-155 0 -215.5 85.5t-60.5 268.5t61.5 272.5t214.5 89.5q154 0 215 -89.5t61 -272.5q0 -185 -60.5 -269.5t-215.5 -84.5zM471 931l21 -73 q-5 -6 -14.5 -15t-34.5 -24.5t-45 -15.5q-25 0 -79 24t-69 24q-11 0 -30 -10.5t-32 -20.5l-14 -11l-21 72l16 15q10 10 35.5 26t45.5 16q29 0 82 -23.5t65 -23.5q22 0 74 40z" />
<glyph unicode="&#xd6;" horiz-adv-x="656" d="M328 83q104 0 140 59.5t36 200.5q0 138 -37.5 203t-138.5 65q-102 0 -139 -64.5t-37 -203.5t36.5 -199.5t139.5 -60.5zM328 -11q-155 0 -215.5 85.5t-60.5 268.5t61.5 272.5t214.5 89.5q154 0 215 -89.5t61 -272.5q0 -185 -60.5 -269.5t-215.5 -84.5zM176 819v104h91 v-104h-91zM381 819v104h91v-104h-91z" />
<glyph unicode="&#xd7;" horiz-adv-x="651" d="M239 528l182 -188l183 188l63 -62l-184 -187l185 -189l-63 -61l-184 187l-183 -187l-62 61l184 189l-184 187z" />
<glyph unicode="&#xd8;" horiz-adv-x="649" d="M324 -11q-56 0 -105 13l-58 -124l-86 38l61 130q-88 77 -88 297q0 183 61.5 272.5t214.5 89.5q61 0 112 -16l55 116l88 -33l-62 -132q84 -81 84 -297q0 -185 -60.5 -269.5t-216.5 -84.5zM148 343q0 -141 35 -197l212 454q-31 11 -71 11q-102 0 -139 -64.5t-37 -203.5z M324 83q104 0 140 59.5t36 200.5q0 132 -32 193l-208 -446q27 -7 64 -7z" />
<glyph unicode="&#xd9;" horiz-adv-x="640" d="M169 216q0 -71 38.5 -100.5t110.5 -29.5q74 0 113 30t39 100v478h98v-478q0 -119 -62.5 -172t-187.5 -53q-122 0 -184 53.5t-62 171.5v478h97v-478zM121 942l231 -94l-30 -78l-233 83z" />
<glyph unicode="&#xda;" horiz-adv-x="642" d="M172 216q0 -71 38.5 -100.5t110.5 -29.5q74 0 113 30t39 100v478h98v-478q0 -119 -62.5 -172t-187.5 -53q-122 0 -184 53.5t-62 171.5v478h97v-478zM183 865l231 93l33 -88l-234 -84z" />
<glyph unicode="&#xdb;" horiz-adv-x="642" d="M172 216q0 -71 38.5 -100.5t110.5 -29.5q74 0 113 30t39 100v478h98v-478q0 -119 -62.5 -172t-187.5 -53q-122 0 -184 53.5t-62 171.5v478h97v-478zM157 788l127 156h76l128 -156h-103l-62 77l-63 -77h-103z" />
<glyph unicode="&#xdc;" horiz-adv-x="642" d="M172 216q0 -71 38.5 -100.5t110.5 -29.5q74 0 113 30t39 100v478h98v-478q0 -119 -62.5 -172t-187.5 -53q-122 0 -184 53.5t-62 171.5v478h97v-478zM196 819v104h91v-104h-91zM402 819v104h90v-104h-90z" />
<glyph unicode="&#xdd;" horiz-adv-x="540" d="M320 297v-297h-97v297l-216 397h108l156 -288l154 288h109zM120 865l231 93l33 -88l-234 -84z" />
<glyph unicode="&#xde;" horiz-adv-x="564" d="M306 207q130 0 130 152q0 69 -31.5 102t-98.5 33h-154v-287h154zM306 113h-154v-113h-98v694h98v-108h154q230 0 230 -227q0 -118 -58 -182t-172 -64z" />
<glyph unicode="&#xdf;" horiz-adv-x="612" d="M175 0h-94v538q0 100 49.5 142t157.5 42q111 0 158.5 -34t47.5 -113q0 -51 -20 -80.5t-62 -47.5q-40 -17 -51.5 -25.5t-11.5 -21.5q0 -14 15.5 -26.5t74.5 -42.5q76 -40 102 -65t26 -71q0 -116 -51 -160t-187 -44q-16 0 -41.5 4t-43.5 8l-17 4l4 76q81 -4 98 -4 q82 0 111 23.5t29 80.5q0 17 -20.5 33.5t-82.5 45.5q-68 33 -91.5 60t-23.5 69q0 40 19 63t62 41q39 17 51.5 33t12.5 41q0 37 -24.5 51.5t-83.5 14.5q-58 0 -85.5 -22.5t-27.5 -81.5v-531z" />
<glyph unicode="&#xe0;" horiz-adv-x="529" d="M430 345v-226q1 -24 13 -34.5t36 -13.5l-3 -81q-51 0 -78 8t-49 28q-87 -37 -174 -37q-67 0 -103.5 41t-36.5 116q0 74 39 108.5t121 41.5l140 12v36q0 76 -74 76q-33 0 -81 -3t-80 -6l-31 -3l-4 82q125 20 201 20q82 0 123 -39t41 -126zM335 234l-129 -10 q-75 -6 -75 -76q0 -77 61 -77q64 0 143 25v138zM136 758l231 -94l-28 -74l-234 84z" />
<glyph unicode="&#xe1;" horiz-adv-x="529" d="M430 345v-226q1 -24 13 -34.5t36 -13.5l-3 -81q-51 0 -78 8t-49 28q-87 -37 -174 -37q-67 0 -103.5 41t-36.5 116q0 74 39 108.5t121 41.5l140 12v36q0 76 -74 76q-33 0 -81 -3t-80 -6l-31 -3l-4 82q125 20 201 20q82 0 123 -39t41 -126zM335 234l-129 -10 q-75 -6 -75 -76q0 -77 61 -77q64 0 143 25v138zM108 665l231 93l33 -88l-234 -84z" />
<glyph unicode="&#xe2;" horiz-adv-x="529" d="M430 345v-226q1 -24 13 -34.5t36 -13.5l-3 -81q-51 0 -78 8t-49 28q-87 -37 -174 -37q-67 0 -103.5 41t-36.5 116q0 74 39 108.5t121 41.5l140 12v36q0 76 -74 76q-33 0 -81 -3t-80 -6l-31 -3l-4 82q125 20 201 20q82 0 123 -39t41 -126zM335 234l-129 -10 q-75 -6 -75 -76q0 -77 61 -77q64 0 143 25v138zM78 588l127 156h76l128 -156h-103l-62 77l-63 -77h-103z" />
<glyph unicode="&#xe3;" horiz-adv-x="529" d="M429 345v-226q1 -24 13 -34.5t37 -13.5l-4 -81q-50 0 -77 8t-49 28q-88 -37 -174 -37q-68 0 -104 41t-36 116q0 74 38.5 108.5t120.5 41.5l141 12v36q0 76 -74 76q-33 0 -81 -3t-80 -6l-31 -3l-4 82q125 20 200 20q83 0 123.5 -39t40.5 -126zM335 234l-129 -10 q-76 -6 -76 -76q0 -77 61 -77q65 0 144 25v138zM388 731l21 -73q-5 -6 -14.5 -15t-34.5 -24.5t-45 -15.5q-25 0 -79 24t-69 24q-11 0 -30 -10.5t-33 -20.5l-13 -11l-21 72l16 15q10 10 35.5 26t45.5 16q29 0 82 -23.5t65 -23.5q22 0 74 40z" />
<glyph unicode="&#xe4;" horiz-adv-x="529" d="M429 345v-226q1 -24 13 -34.5t37 -13.5l-4 -81q-50 0 -77 8t-49 28q-88 -37 -174 -37q-68 0 -104 41t-36 116q0 74 38.5 108.5t120.5 41.5l141 12v36q0 76 -74 76q-33 0 -81 -3t-80 -6l-31 -3l-4 82q125 20 200 20q83 0 123.5 -39t40.5 -126zM335 234l-129 -10 q-76 -6 -76 -76q0 -77 61 -77q65 0 144 25v138zM102 619v104h91v-104h-91zM308 619v104h90v-104h-90z" />
<glyph unicode="&#xe5;" horiz-adv-x="529" d="M430 345v-226q1 -24 13 -34.5t36 -13.5l-3 -81q-51 0 -78 8t-49 28q-87 -37 -174 -37q-67 0 -103.5 41t-36.5 116q0 74 39 108.5t121 41.5l140 12v36q0 76 -74 76q-33 0 -81 -3t-80 -6l-31 -3l-4 82q125 20 201 20q82 0 123 -39t41 -126zM335 234l-129 -10 q-75 -6 -75 -76q0 -77 61 -77q64 0 143 25v138zM148 643q0 45 31.5 76.5t77.5 31.5q45 0 76.5 -31.5t31.5 -76.5q0 -46 -31.5 -77t-76.5 -31q-47 0 -78 31t-31 77zM214 643q0 -19 12.5 -31.5t31.5 -12.5q17 0 29.5 12.5t12.5 31.5q0 18 -12.5 30.5t-29.5 12.5 q-19 0 -31.5 -12.5t-12.5 -30.5z" />
<glyph unicode="&#xe6;" horiz-adv-x="828" d="M569 76q78 0 184 9l2 -75q-114 -21 -199 -21q-99 0 -149 52l-29 -13q-87 -39 -185 -39q-68 0 -104 41t-36 116q0 80 42 112t137 40l122 10v36q0 37 -20 56.5t-55 19.5q-33 0 -80.5 -2.5t-78.5 -5.5l-32 -2l-4 83q124 17 200 17q98 0 133 -60q50 60 149 60q104 0 155 -56 t51 -175l-6 -69h-318q1 -69 28.5 -101.5t92.5 -32.5zM210 71q54 0 155 29q-13 49 -13 134l-127 -10q-39 -3 -57.5 -21t-18.5 -55q0 -77 61 -77zM448 284h230q0 77 -26 109.5t-86 32.5t-89 -34t-29 -108z" />
<glyph unicode="&#xe7;" horiz-adv-x="436" d="M379 -127q0 -98 -99 -98q-19 0 -41 2t-35 4l-12 2l3 58q36 -2 60 -2q42 0 42 34q0 30 -42 30h-36v88q-97 7 -135.5 68t-38.5 198q0 136 48.5 194.5t160.5 58.5q22 0 58 -4t61 -8l25 -4l-4 -82q-79 9 -117 9q-80 0 -108 -35.5t-28 -128.5q0 -103 26.5 -140.5t110.5 -37.5 l117 8l3 -82q-83 -14 -134 -16v-34q61 -1 88 -17.5t27 -64.5z" />
<glyph unicode="&#xe8;" horiz-adv-x="501" d="M261 76q77 0 184 9l2 -75q-114 -21 -199 -21q-110 1 -157 62.5t-47 194.5q0 264 213 264q105 0 156 -56t51 -175l-6 -69h-318q0 -69 28 -101.5t93 -32.5zM139 284h231q0 77 -26 109.5t-87 32.5q-59 0 -88 -33.5t-30 -108.5zM131 746l231 -94l-28 -74l-234 84z" />
<glyph unicode="&#xe9;" horiz-adv-x="501" d="M261 76q77 0 184 9l2 -75q-114 -21 -199 -21q-110 1 -157 62.5t-47 194.5q0 264 213 264q105 0 156 -56t51 -175l-6 -69h-318q0 -69 28 -101.5t93 -32.5zM139 284h231q0 77 -26 109.5t-87 32.5q-59 0 -88 -33.5t-30 -108.5zM136 665l231 93l33 -88l-234 -84z" />
<glyph unicode="&#xea;" horiz-adv-x="501" d="M261 76q77 0 184 9l2 -75q-114 -21 -199 -21q-110 1 -157 62.5t-47 194.5q0 264 213 264q105 0 156 -56t51 -175l-6 -69h-318q0 -69 28 -101.5t93 -32.5zM139 284h231q0 77 -26 109.5t-87 32.5q-59 0 -88 -33.5t-30 -108.5zM98 588l127 156h76l128 -156h-103l-62 77 l-63 -77h-103z" />
<glyph unicode="&#xeb;" horiz-adv-x="501" d="M261 76q77 0 184 9l2 -75q-114 -21 -199 -21q-110 1 -157 62.5t-47 194.5q0 264 213 264q105 0 156 -56t51 -175l-6 -69h-318q0 -69 27.5 -101.5t93.5 -32.5zM139 284h231q0 77 -26 109.5t-87 32.5q-59 0 -88 -33.5t-30 -108.5zM108 619v104h90v-104h-90zM313 619v104h91 v-104h-91z" />
<glyph unicode="&#xec;" horiz-adv-x="261" d="M85 0v499h95v-499h-95zM25 758l231 -94l-28 -74l-234 84z" />
<glyph unicode="&#xed;" horiz-adv-x="261" d="M22 665l231 93l33 -88l-234 -84zM85 0v499h95v-499h-95z" />
<glyph unicode="&#xee;" horiz-adv-x="265" d="M85 0v499h95v-499h-95zM-37 588l127 156h76l128 -156h-103l-62 77l-63 -77h-103z" />
<glyph unicode="&#xef;" horiz-adv-x="261" d="M-20 619v104h91v-104h-91zM186 619v104h91v-104h-91zM85 0v499h95v-499h-95z" />
<glyph unicode="&#xf0;" d="M155 503l-41 56l70 51q-40 12 -100 25l16 81q95 -15 169 -42l98 72l40 -56l-66 -49q159 -90 159 -291q0 -190 -56 -274.5t-183 -84.5q-109 0 -168 60.5t-59 174.5q0 94 58 150.5t154 56.5q32 0 70.5 -8t60.5 -16l22 -8q-5 61 -36.5 104.5t-101.5 76.5zM252 349 q-54 0 -85.5 -35t-31.5 -88q0 -70 31.5 -108.5t94.5 -38.5q72 0 104.5 54.5t33.5 183.5q-75 32 -147 32z" />
<glyph unicode="&#xf1;" horiz-adv-x="574" d="M181 0h-94v499h94v-29q82 40 144 40q101 0 136.5 -56.5t35.5 -192.5v-261h-95v260q0 91 -18 126.5t-75 35.5q-56 0 -128 -30v-392zM441 731l21 -73q-5 -6 -14.5 -15t-34.5 -24.5t-45 -15.5q-25 0 -79 24t-69 24q-11 0 -30 -10.5t-32 -20.5l-14 -11l-21 72l16 15 q10 10 35.5 26t45.5 16q29 0 82 -23.5t65 -23.5q22 0 74 40z" />
<glyph unicode="&#xf2;" horiz-adv-x="528" d="M265 510q115 0 166.5 -64t51.5 -192q0 -134 -48 -199.5t-170 -65.5q-123 0 -171.5 64.5t-48.5 200.5q0 130 50.5 193t169.5 63zM265 75q73 0 97.5 41.5t24.5 137.5q0 90 -28 130.5t-94 40.5q-71 0 -97.5 -38.5t-26.5 -132.5q0 -98 25 -138.5t99 -40.5zM164 758l231 -94 l-28 -74l-234 84z" />
<glyph unicode="&#xf3;" horiz-adv-x="528" d="M265 510q115 0 166.5 -64t51.5 -192q0 -134 -48 -199.5t-170 -65.5q-123 0 -171.5 64.5t-48.5 200.5q0 130 50.5 193t169.5 63zM265 75q73 0 97.5 41.5t24.5 137.5q0 90 -28 130.5t-94 40.5q-71 0 -97.5 -38.5t-26.5 -132.5q0 -98 25 -138.5t99 -40.5zM128 665l231 93 l33 -88l-234 -84z" />
<glyph unicode="&#xf4;" horiz-adv-x="528" d="M265 510q115 0 166.5 -64t51.5 -192q0 -134 -48 -199.5t-170 -65.5q-123 0 -171.5 64.5t-48.5 200.5q0 130 50.5 193t169.5 63zM265 75q73 0 97.5 41.5t24.5 137.5q0 90 -28 130.5t-94 40.5q-71 0 -97.5 -38.5t-26.5 -132.5q0 -98 25 -138.5t99 -40.5zM95 588l127 156h76 l128 -156h-103l-62 77l-63 -77h-103z" />
<glyph unicode="&#xf5;" horiz-adv-x="528" d="M265 510q115 0 166.5 -64t51.5 -192q0 -134 -48 -199.5t-170 -65.5q-123 0 -171.5 64.5t-48.5 200.5q0 130 50.5 193t169.5 63zM265 75q73 0 97.5 41.5t24.5 137.5q0 90 -28 130.5t-94 40.5q-71 0 -97.5 -38.5t-26.5 -132.5q0 -98 25 -138.5t99 -40.5zM410 731l21 -73 q-5 -6 -14.5 -15t-34.5 -24.5t-45 -15.5q-25 0 -79 24t-69 24q-11 0 -30 -10.5t-33 -20.5l-13 -11l-21 72l16 15q10 10 35.5 26t45.5 16q29 0 82 -23.5t65 -23.5q23 0 74 40z" />
<glyph unicode="&#xf6;" horiz-adv-x="528" d="M265 510q115 0 166.5 -64t51.5 -192q0 -134 -48 -199.5t-170 -65.5q-123 0 -171.5 64.5t-48.5 200.5q0 130 50.5 193t169.5 63zM265 75q73 0 97.5 41.5t24.5 137.5q0 90 -28 130.5t-94 40.5q-71 0 -97.5 -38.5t-26.5 -132.5q0 -98 25 -138.5t99 -40.5zM114 619v104h90 v-104h-90zM319 619v104h91v-104h-91z" />
<glyph unicode="&#xf7;" d="M78 331v105h56v32h213v-32h51v-105h-320zM193 83v111h95v-111h-95z" />
<glyph unicode="&#xf8;" horiz-adv-x="528" d="M265 510q39 0 67 -7l42 103l60 -22l-42 -104q91 -55 91 -226q0 -134 -48 -199.5t-170 -65.5q-35 0 -72 7l-43 -106l-60 22l44 106q-89 53 -89 236q0 130 50.5 193t169.5 63zM265 75q73 0 97.5 41.5t24.5 137.5q0 98 -34 138l-128 -314q18 -3 40 -3zM265 425 q-71 0 -97.5 -38.5t-26.5 -132.5q0 -112 33 -149l126 316q-13 4 -35 4z" />
<glyph unicode="&#xf9;" horiz-adv-x="559" d="M146 757l230 -93l-34 -84l-231 89zM384 499h95v-499h-95v29q-78 -40 -140 -40q-103 0 -137 54.5t-34 195.5v260h95v-259q0 -98 16.5 -131.5t76.5 -33.5q25 0 55.5 7.5t49.5 15.5l18 7v394z" />
<glyph unicode="&#xfa;" horiz-adv-x="559" d="M384 499h95v-499h-95v29q-78 -40 -140 -40q-103 0 -137 54.5t-34 195.5v260h95v-259q0 -98 16.5 -131.5t76.5 -33.5q25 0 55.5 7.5t49.5 15.5l18 7v394zM142 665l231 93l33 -88l-234 -84z" />
<glyph unicode="&#xfb;" horiz-adv-x="559" d="M384 499h95v-499h-95v29q-78 -40 -140 -40q-103 0 -137 54.5t-34 195.5v260h95v-259q0 -98 16.5 -131.5t76.5 -33.5q25 0 55.5 7.5t49.5 15.5l18 7v394zM96 588l127 156h76l128 -156h-103l-62 77l-63 -77h-103z" />
<glyph unicode="&#xfc;" horiz-adv-x="559" d="M384 499h95v-499h-95v29q-78 -40 -140 -40q-103 0 -137 54.5t-34 195.5v260h95v-259q0 -98 16.5 -131.5t76.5 -33.5q25 0 55.5 7.5t49.5 15.5l18 7v394zM134 619v104h91v-104h-91zM340 619v104h90v-104h-90z" />
<glyph unicode="&#xfd;" horiz-adv-x="480" d="M12 499h94l113 -408h30l114 408h94l-196 -716h-94l59 217h-78zM125 665l231 93l33 -88l-234 -84z" />
<glyph unicode="&#xfe;" horiz-adv-x="538" d="M276 75q88 0 116.5 40.5t28.5 141.5q0 90 -23.5 128t-80.5 38q-24 0 -54.5 -5.5t-48.5 -10.5l-19 -5v-322q58 -5 81 -5zM328 510q102 0 145.5 -57.5t43.5 -195.5q0 -152 -52.5 -210t-187.5 -58q-14 0 -44 2t-38 2v-211h-95v930h95v-232q71 30 133 30z" />
<glyph unicode="&#xff;" horiz-adv-x="483" d="M19 499h94l113 -408h30l114 408h94l-196 -716h-94l59 217h-78zM95 619v104h91v-104h-91zM301 619v104h90v-104h-90z" />
<glyph unicode="&#x152;" horiz-adv-x="944" d="M879 0h-421q-73 -11 -135 -11q-152 0 -207.5 84t-55.5 272q0 191 58 275.5t205 84.5q65 0 133 -11h423v-94h-327v-200h267v-93h-267v-213h327v-94zM338 84q27 0 118 8v509q-105 9 -121 9q-102 0 -138.5 -58t-36.5 -206q0 -147 35.5 -204.5t142.5 -57.5z" />
<glyph unicode="&#x153;" horiz-adv-x="876" d="M618 76q77 0 184 9l2 -75q-114 -21 -199 -21q-112 0 -159 72q-48 -72 -167 -72q-123 0 -171.5 64.5t-48.5 200.5q0 130 50.5 193t169.5 63q122 0 171 -80q49 80 164 80q105 0 156 -56t51 -175l-6 -69h-318q0 -69 27.5 -101.5t93.5 -32.5zM279 75q73 0 97.5 41.5 t24.5 137.5q0 90 -28 130.5t-94 40.5q-71 0 -97.5 -38.5t-26.5 -132.5q0 -98 25 -138.5t99 -40.5zM496 284h231q0 77 -26 109.5t-87 32.5q-59 0 -88.5 -34t-29.5 -108z" />
<glyph unicode="&#x178;" horiz-adv-x="559" d="M329 297v-297h-97v297l-216 397h108l156 -288l154 288h109zM129 812v104h90v-104h-90zM340 812v104h91v-104h-91z" />
<glyph unicode="&#x2c6;" horiz-adv-x="247" d="M-31 588l127 156h76l128 -156h-103l-62 77l-63 -77h-103z" />
<glyph unicode="&#x2dc;" horiz-adv-x="247" d="M283 731l21 -73q-5 -6 -14.5 -15t-34 -24.5t-44.5 -15.5q-26 0 -80 24t-69 24q-11 0 -30 -10.5t-32 -20.5l-14 -11l-21 72l16 15q10 10 35.5 26t45.5 16q29 0 82 -23.5t65 -23.5q23 0 74 40z" />
<glyph unicode="&#x2000;" horiz-adv-x="479" />
<glyph unicode="&#x2001;" horiz-adv-x="958" />
<glyph unicode="&#x2002;" horiz-adv-x="479" />
<glyph unicode="&#x2003;" horiz-adv-x="958" />
<glyph unicode="&#x2004;" horiz-adv-x="319" />
<glyph unicode="&#x2005;" horiz-adv-x="239" />
<glyph unicode="&#x2006;" horiz-adv-x="159" />
<glyph unicode="&#x2007;" horiz-adv-x="159" />
<glyph unicode="&#x2008;" horiz-adv-x="119" />
<glyph unicode="&#x2009;" horiz-adv-x="191" />
<glyph unicode="&#x200a;" horiz-adv-x="53" />
<glyph unicode="&#x2010;" horiz-adv-x="440" d="M66 235v92h308v-92h-308z" />
<glyph unicode="&#x2011;" horiz-adv-x="440" d="M66 235v92h308v-92h-308z" />
<glyph unicode="&#x2013;" horiz-adv-x="500" d="M0 315h500v-86h-500v86z" />
<glyph unicode="&#x2014;" horiz-adv-x="1000" d="M0 315h1000v-86h-1000v86z" />
<glyph unicode="&#x2018;" horiz-adv-x="170" d="M145 727l-46 -228h-98l54 228h90z" />
<glyph unicode="&#x2019;" horiz-adv-x="170" d="M24 527l46 228h98l-54 -228h-90z" />
<glyph unicode="&#x201a;" horiz-adv-x="202" d="M160 116l-46 -228h-98l54 228h90z" />
<glyph unicode="&#x201c;" horiz-adv-x="430" d="M303 727l-46 -228h-144l54 228h136z" />
<glyph unicode="&#x201d;" horiz-adv-x="435" d="M76 496l46 228h98l-54 -228h-90zM237 496l46 228h98l-54 -228h-90z" />
<glyph unicode="&#x201e;" horiz-adv-x="399" d="M353 116l-46 -228h-98l54 228h90zM160 116l-46 -228h-98l54 228h90z" />
<glyph unicode="&#x2022;" d="M143 104v284h244v-284h-244z" />
<glyph unicode="&#x2026;" horiz-adv-x="744" d="M75 0v132h103v-132h-103zM330 0v132h102v-132h-102zM584 0v132h103v-132h-103z" />
<glyph unicode="&#x202f;" horiz-adv-x="191" />
<glyph unicode="&#x2039;" horiz-adv-x="342" d="M264 335l-120 -87l120 -98v-98l-201 158v72l201 150v-97z" />
<glyph unicode="&#x203a;" horiz-adv-x="342" d="M197 254l-119 87v97l201 -150v-72l-201 -158v98z" />
<glyph unicode="&#x205f;" horiz-adv-x="239" />
<glyph unicode="&#x20ac;" horiz-adv-x="568" d="M43 448h61q14 120 69 173t176 53q89 0 177 -19l-4 -87q-97 11 -161 11q-77 0 -111 -30t-44 -102h250v-75h-256q-1 -13 -1 -42t1 -42h256v-76h-250q10 -69 44.5 -98.5t112.5 -29.5q58 0 159 11l3 -88q-97 -18 -176 -18q-124 0 -178 52.5t-67 170.5h-61v76h56v84h-56v76z " />
<glyph unicode="&#x2122;" d="M7 575v60h200v-60h-58v-243h-66v243h-76zM236 331v304h82l58 -192l62 192h81v-304h-62v208l-56 -191h-47l-56 191v-208h-62z" />
<glyph horiz-adv-x="235" />
</font>
</defs>
</svg>
